↑↓Torrent.by
Поиск
Логин: Регистрация
Пароль: Восстановить пароль
Загрузка...

Тобол (2019) WEB-DLRip | iTunes

Скачать tobol-2019-web-dlrip-itunes.torrent
U Магнитная ссылка Размер: 1.46 GB Раздают: 570 Качают: 236 Добавлен: 2019-03-21 06:28:22
Тобол (2019) WEB-DLRip | iTunes

Название: Тобол
Год выхода: 2019
Жанр: История, драма
Страна: Россия
Перевод: Не требуется
Продолжительность: 01:48:01
Режиссер: Игорь Зайцев
В ролях: Илья Маланин, Дмитрий Назаров, Дмитрий Дюжев, Евгений Дятлов, Агата Муцениеце, Александр Лазарев мл., Андрей Бурковский, Юлия Макарова, Павел Табаков, Еркебулан Даиров и др.

О фильме: Молодой офицер новой гвардии Петра I Иван Демарин по заданию царя отправляется в глубину Сибири — в пограничный Тобольск. Здесь Иван встречает свою первую любовь и вместе со своим полком оказывается втянутым в заговор местных князей, охотящихся за золотом Яркенда. Его крепость окружена полчищами диких джунгар и помощи ждать неоткуда…

Файл
Формат: AVI
Качество: WEB-DLRip
Видео: Xvid 73, 720x304, ~1535 kbps, 24,000 fps
Звук: русский, AC3, 5.1 ch, 48 kHz, 384 kbps | iTunes
Субтитры: нет

Рип и релиз от:


[+] MI
General
Полное имя                               : E:TorrentTobolWEBDLRip.avi
Формат                                   : AVI
Формат/Информация                        : Audio Video Interleave
Профиль формата                          : OpenDML
Размер файла                             : 1.46 GiB
Продолжительность                        : 1 h 48 min
Общий поток                              : 1 931 kb/s
Программа кодирования                    : XviD4PSP 6.0 / 54.27.101

Video
Идентификатор                            : 0
Формат                                   : MPEG-4 Visual
Профиль формата                          : Advanced Simple@L5
Настройки формата                        : BVOP2 / Custom Matrix
Параметр BVOP формата                    : 2
Параметр QPel формата                    : No
Параметр GMC формата                     : No warppoints
Параметр матрицы формата                 : Custom
Идентификатор кодека                     : XVID
Идентификатор кодека/Подсказка           : XviD
Продолжительность                        : 1 h 48 min
Битрейт                                  : 1 535 kb/s
Ширина                                   : 720 pixels
Высота                                   : 304 pixels
Соотношение сторон                       : 2.35:1
Частота кадров                           : 24.000 FPS
Цветовое пространство                    : YUV
Субдискретизация насыщенности            : 4:2:0
Битовая глубина                          : 8 bits
Тип развёртки                            : Progressive
Метод сжатия                             : Lossy
Бит/(Пиксели*Кадры)                      : 0.292
Размер потока                            : 1.16 GiB (79%)
Библиотека кодирования                   : XviD 73

Audio
Идентификатор                            : 1
Формат                                   : AC-3
Формат/Информация                        : Audio Coding 3
Идентификатор кодека                     : 2000
Продолжительность                        : 1 h 48 min
Вид битрейта                             : Constant
Битрейт                                  : 384 kb/s
Каналы                                   : 6 channels
Расположение каналов                     : Front: L C R, Side: L R, LFE
Частота                                  : 48.0 kHz
Частота кадров                           : 31.250 FPS (1536 SPF)
Битовая глубина                          : 16 bits
Метод сжатия                             : Lossy
Размер потока                            : 297 MiB (20%)
Выравнивание                             : Aligned on interleaves
Продолжительность промежутка             : 32  ms (0.77 video frame)




Скриншоты:
[+] Всего файлов в раздаче - 1:
TobolWEBDLRip.avi1.46 GB

Показать еще раздачи по запросу тобол:
2019-03-24 U Тобол (2019) WEB-DLRip от GeneralFilm | iTunes 1К745.73 MB ↑ 189 ↓ 39
2019-03-23 U Тобол (2019) WEB-DLRip от Scarabey | iTunes 1.45 GB ↑ 232 ↓ 50
2019-03-22 U Тобол (2019) WEB-DLRip от Generalfilm | КПК | iTunes 407.56 MB ↑ 102 ↓ 13
2019-03-22 U Тобол (2019) WEB-DLRip-AVC | iTunes 1.20 GB ↑ 134 ↓ 37
2019-03-22 U Тобол (2019) WEB-DLRip-AVC от OlLanDGroup | iTunes 1.65 GB ↑ 331 ↓ 66
2019-03-21 U Тобол (2019) WEB-DLRip от MegaPeer | iTunes 1.46 GB ↑ 317 ↓ 166
2019-03-21 U Тобол (2019) WEB-DL 1080p | iTunes 3.71 GB ↑ 1263 ↓ 528

Отзывы
Зарегистрируйтесь чтобы добавить комментарий.
Обратная связь
Copyleft ©