↑↓Torrent.by
Поиск
Логин: Регистрация
Пароль: Восстановить пароль
Загрузка...

Тобол (2019) WEB-DLRip-AVC от OlLanDGroup | iTunes

Скачать tobol-2019-web-dlrip-avc-ot-ollandgroup-itunes.torrent
U Магнитная ссылка Размер: 1.65 GB Раздают: 333 Качают: 66 Добавлен: 2019-03-22 10:08:59
Тобол (2019) WEB-DLRip-AVC от OlLanDGroup | iTunes

Тобол
«Много званых, мало избранных»

Год выпуска: 2019
Страна: Россия
Производство: Yellow, Black & White
Жанр:  История, драма

Режиссёр: Игорь Зайцев
В ролях: Дмитрий Назаров, Александр Лазарев мл., Юлия Макарова, Евгений Дятлов, Дмитрий Дюжев, Павел Табаков, Илья Маланин, Еркебулан Даиров, Андрей Бурковский, Агата Муцениеце

Перевод: Оригинал |
Субтитры: Нет
Реклама: Отсутствует

Описание: Молодой офицер новой гвардии Петра I Иван Демарин по заданию царя отправляется в глубину Сибири — в пограничный Тобольск. Здесь Иван встречает свою первую любовь и вместе со своим полком оказывается втянутым в заговор местных князей, охотящихся за золотом Яркенда. Его крепость окружена полчищами диких джунгар и помощи ждать неоткуда…

Качество: WEB-DLRip-AVC | |
Продолжительность: 01:48:01

Формат: MKV
Видео кодек: MPEG-4 AVC
Аудио кодек: AC3
Видео: 1024x430 (2.40:1), 24,000 fps, x264 ~1 806 kbps avg, 0.171 bit/pixel
Аудио #1: 48 kHz, AC3 Dolby Digital, 3/2 (L,C,R,l,r) + LFE ch, ~384.00 kbps avg | RUS

Дата премьеры (мир): 7 сентября 2018
Дата премьеры (РФ): 7 февраля 2019, «Централ Партнершип»
Цифровой релиз:

Релиз:


[+] MediaInfo

Общее
Уникальный идентификатор                 : 21226700833580400878558455749614818027 (0xFF81D26F370E62F292CB21A4188D2EB)
Полное имя                               : F:OlLanDGroupTobol.2019.WEB-DLRip(AVC).OllanDGroup.mkv
Формат                                   : Matroska
Версия формата                           : Version 4 / Version 2
Размер файла                             : 1,65 Гбайт
Продолжительность                        : 1 ч. 48 м.
Общий поток                              : 2189 Кбит/сек
Название фильма                          : Tobol.2019   #TorpedoUK#
Дата кодирования                         : UTC 2019-03-21 12:56:25
Программа кодирования                    : mkvmerge v29.0.0 ('Like It Or Not') 64-bit
Библиотека кодирования                   : libebml v1.3.6 + libmatroska v1.4.9

Видео
Идентификатор                            : 1
Формат                                   : AVC
Формат/Информация                        : Advanced Video Codec
Профиль формата                          : High@L4.1
Параметр CABAC формата                   : Да
Параметр ReFrames формата                : 10 кадров
Идентификатор кодека                     : V_MPEG4/ISO/AVC
Продолжительность                        : 1 ч. 48 м.
Битрейт                                  : 1806 Кбит/сек
Ширина                                   : 1024 пикселя
Высота                                   : 430 пикселей
Соотношение сторон                       : 2,40:1
Режим частоты кадров                     : Постоянный
Частота кадров                           : 24,000 кадра/сек
Цветовое пространство                    : YUV
Субдискретизация насыщенности            : 4:2:0
Битовая глубина                          : 8 бит
Тип развёртки                            : Прогрессивная
Бит/(Пиксели*Кадры)                      : 0.171
Размер потока                            : 1,36 Гбайт (82%)
Библиотека кодирования                   : x264 core 146 r2538 121396c
Настройки программы                      : cabac=1 / ref=10 / deblock=1:-3:-3 / analyse=0x3:0x113 / me=umh / subme=10 / psy=1 / psy_rd=0.98:0.04 / mixed_ref=1 / me_range=48 / chroma_me=1 / trellis=2 / 8x8dct=1 / cqm=0 / deadzone=21,11 / fast_pskip=1 / chroma_qp_offset=-3 / threads=6 / lookahead_threads=1 / sliced_threads=0 / nr=0 / decimate=1 / interlaced=0 / bluray_compat=0 / constrained_intra=0 / bframes=11 / b_pyramid=2 / b_adapt=2 / b_bias=0 / direct=3 / weightb=1 / open_gop=0 / weightp=2 / keyint=240 / keyint_min=24 / scenecut=40 / intra_refresh=0 / rc_lookahead=40 / rc=2pass / mbtree=0 / bitrate=1806 / ratetol=1.0 / qcomp=0.60 / qpmin=0 / qpmax=69 / qpstep=4 / cplxblur=20.0 / qblur=0.5 / vbv_maxrate=50000 / vbv_bufsize=62500 / nal_hrd=none / filler=0 / ip_ratio=1.40 / pb_ratio=1.30 / aq=1:1.00
Язык                                     : English
Default                                  : Да
Forced                                   : Нет

Аудио
Идентификатор                            : 2
Формат                                   : AC-3
Формат/Информация                        : Audio Coding 3
Расширение режима                        : CM (complete main)
Параметр Endianness формата              : Big
Идентификатор кодека                     : A_AC3
Продолжительность                        : 1 ч. 48 м.
Вид битрейта                             : Постоянный
Битрейт                                  : 384 Кбит/сек
Каналы                                   : 6 каналов
Расположение каналов                     : Front: L C R, Side: L R, LFE
Частота                                  : 48,0 КГц
Частота кадров                           : 31,250 кадров/сек (1536 spf)
Битовая глубина                          : 16 бит
Метод сжатия                             : С потерями
Размер потока                            : 297 Мбайт (18%)
Язык                                     : Russian
Default                                  : Да
Forced                                   : Нет

Меню
00:00:00.000                             : en:Глава 1
00:09:41.666                             : en:Глава 2
00:21:39.666                             : en:Глава 3
00:30:55.124                             : en:Глава 4
00:39:23.915                             : en:Глава 5
00:49:00.331                             : en:Глава 6
01:01:22.539                             : en:Глава 7
01:10:35.664                             : en:Глава 8
01:17:05.080                             : en:Глава 9
01:30:25.038                             : en:Глава 10
01:36:12.704                             : en:Глава 11
01:39:48.995                             : en:Глава 12



Скриншоты:
[+] Всего файлов в раздаче - 1:
Tobol.2019.WEB-DLRip(AVC).OllanDGroup.mkv1.65 GB

Показать еще раздачи по запросу тобол:
2019-03-24 U Тобол (2019) WEB-DLRip от GeneralFilm | iTunes 1К745.73 MB ↑ 193 ↓ 39
2019-03-23 U Тобол (2019) WEB-DLRip от Scarabey | iTunes 1.45 GB ↑ 234 ↓ 50
2019-03-22 U Тобол (2019) WEB-DLRip от Generalfilm | КПК | iTunes 407.56 MB ↑ 102 ↓ 13
2019-03-22 U Тобол (2019) WEB-DLRip-AVC | iTunes 1.20 GB ↑ 136 ↓ 37
2019-03-21 U Тобол (2019) WEB-DLRip от MegaPeer | iTunes 1.46 GB ↑ 318 ↓ 167
2019-03-21 U Тобол (2019) WEB-DLRip | iTunes 1.46 GB ↑ 576 ↓ 236
2019-03-21 U Тобол (2019) WEB-DL 1080p | iTunes 3.71 GB ↑ 1268 ↓ 528

Отзывы
Зарегистрируйтесь чтобы добавить комментарий.
Обратная связь
Copyleft ©