↑↓Torrent.by
Поиск
Логин: Регистрация
Пароль: Восстановить пароль
Загрузка...

Айка (2018) WEB-DL 1080p | iTunes

Скачать ayka-2018-web-dl-1080p-itunes.torrent
U Магнитная ссылка Размер: 4.47 GB Раздают: 186 Качают: 93 Добавлен: 2019-03-23 07:22:17
Айка (2018) WEB-DL 1080p | iTunes

Название: Айка
Год выпуска: 2018
Жанр:  Драма
Режиссер: Сергей Дворцевой
В ролях: Самал Еслямова, Джипаргуль Абдилова, Давид Алавердян, Нуржамал Мамадалиева, Нуржан Кунназарова, Сергей Мазур, Азамат Сатимбаев, Асхат Кучинчереков, Лариса Фирсова, Полина Северная

Описание: Молодая девушка, приехавшая в холодную Москву на заработки, вынуждена оставить своего новорожденного ребенка в роддоме. Однако вскоре ей предстоит понять, способна ли она смириться с разлукой.

Страна: Россия, Германия, Польша, Китай, Казахстан
Студии: ARTE LLC, Eurasia Film Production, Eurimages
Продолжительность: 01:53:36
Язык: Русский

Файл
Качество: WEB-DL 1080p
Контейнер: MKV
Видео: MPEG-4 AVC, 1920x1080, 24.000 fps, 5135 Kbps
Аудио: Русский: AC3, 16 bits, 48 KHz, 5.1 ch, 384 Kbps | iTunes
Субтитры: Нет

Релиз от: george$t


[+] MediaInfo
General
Unique ID                   : 173818809553634364144810890163722656235 (0x82C448F72EC5550E976A7BCF964C19EB)
Complete name               : Айка.2018.mkv
Format                      : Matroska
Format version              : Version 2
File size                   : 4.47 GiB
Duration                    : 1 h 53 min
Overall bit rate            : 5 631 kb/s
Encoded date                : UTC 2019-03-22 13:16:04
Writing application         : mkvmerge v7.8.0 ('River Man') 32bit built on Mar 27 2015 16:18:02
Writing library             : libebml v1.3.1 + libmatroska v1.4.2

Video
ID                          : 1
Format                      : AVC
Format/Info                 : Advanced Video Codec
Format profile              : High@L4
Format settings             : CABAC / 4 Ref Frames
Format settings, CABAC      : Yes
Format settings, ReFrames   : 4 frames
Codec ID                    : V_MPEG4/ISO/AVC
Duration                    : 1 h 53 min
Bit rate                    : 5 135 kb/s
Width                       : 1 920 pixels
Height                      : 1 080 pixels
Display aspect ratio        : 16:9
Frame rate mode             : Constant
Frame rate                  : 24.000 FPS
Color space                 : YUV
Chroma subsampling          : 4:2:0
Bit depth                   : 8 bits
Scan type                   : Progressive
Bits/(Pixel*Frame)          : 0.103
Stream size                 : 4.07 GiB (91%)
Title                       : Айка.2018
Language                    : Russian
Default                     : Yes
Forced                      : No
Color range                 : Limited
Color primaries             : BT.709
Transfer characteristics    : BT.709
Matrix coefficients         : BT.709

Audio
ID                          : 2
Format                      : AC-3
Format/Info                 : Audio Coding 3
Codec ID                    : A_AC3
Duration                    : 1 h 53 min
Bit rate mode               : Constant
Bit rate                    : 384 kb/s
Channel(s)                  : 6 channels
Channel positions           : Front: L C R, Side: L R, LFE
Sampling rate               : 48.0 kHz
Frame rate                  : 31.250 FPS (1536 SPF)
Bit depth                   : 16 bits
Compression mode            : Lossy
Stream size                 : 312 MiB (7%)
Title                       : AC-3; 16 bits 48 Khz; 5.1ch 384 Kbps; CBR | (iTunes)
Language                    : Russian
Service kind                : Complete Main
Default                     : Yes
Forced                      : No



Скриншоты:
[+] Всего файлов в раздаче - 1:
Айка.2018.mkv4.47 GB

Похожие раздачи по запросу - айка:
2019-03-23 U Айка (2018) WEB-DLRip от MegaPeer | iTunes 1.46 GB ↑ 248 ↓ 81

Отзывы
Зарегистрируйтесь чтобы добавить комментарий.
Обратная связь
Copyleft ©