↑↓Torrent.by
Поиск
Логин: Регистрация
Пароль: Восстановить пароль
Загрузка...

Цензор (2017) WEB-DL 1080p

Скачать cenzor-2017-web-dl-1080p.torrent
U Магнитная ссылка Размер: 4.65 GB Раздают: 154 Качают: 89 Добавлен: 2019-03-23 07:22:40
Цензор (2017) WEB-DL 1080p

Название: Цензор
Год выпуска: 2017
Жанр:  Фантастика, боевик, драма, ужасы
Режиссер: Константин Шелепов
В ролях: Степан Бекетов, Павел Михайлов, Галина Сумина, Сергей Мардарь, Юлия Денисова, Ольга Витченко, Владимир Чернышов, Руслан Кацагаджиев, Артём Шилов, Натиг Талыбов, Евгений Добряков, Карина Разумовская, Светлана Смирнова-Кацагаджиева, Диана Федоренко

О фильме: Действие происходит в недалеком будущем. Индустрия развлечений шагнула вперед после изобретения виртуальной реальности. Вира получила распространение только в клубах — уж очень дорогое это удовольствие: чтобы просчитать реалистичный игровой мир, нужны мощные компьютеры; для полной имитации всех пяти чувств нужны кабинки вира-контакта, а каждая кабинка стоит как приличная вилла; да и сами вира-игры стоят очень недешево. Теперь, играя в различные компьютерные игры, человек полностью переносится в вымышленный мир, который порой сложно отличить от реального.

Выпущено: Россия, Юджиси Пикчерз, Фильматико
Продолжительность: 02:01:08
Язык: Русский

Файл
Качество: WEB-DL 1080p
Контейнер: MKV
Видео: MPEG-4 AVC, 5003 Кбит/с, 1920x1080
Аудио: AC3, 6 ch, 384 Кбит/с
Субтитры: Нет


[+] MediaInfo
General
Unique ID                                : 212909951023139390618751680320398763095 (0xA02CF70B1D638FFDAEBAE1DD142D2457)
Complete name                            : Cenzor.2017.WEB-DL.(1080p).Getty.mkv
Format                                   : Matroska
Format version                           : Version 4 / Version 2
File size                                : 4.65 GiB
Duration                                 : 2 h 1 min
Overall bit rate                         : 5 497 kb/s
Movie name                               : Cenzor.2017.WEB-DL.(1080p).Getty
Encoded date                             : UTC 2019-03-21 20:19:31
Writing application                      : mkvmerge v7.8.0 ('River Man') 32bit built on Mar 27 2015 16:18:02
Writing library                          : libebml v1.3.1 + libmatroska v1.4.2

Video
ID                                       : 1
Format                                   : AVC
Format/Info                              : Advanced Video Codec
Format profile                           : High@L4
Format settings, CABAC                   : Yes
Format settings, RefFrames               : 4 frames
Codec ID                                 : V_MPEG4/ISO/AVC
Duration                                 : 2 h 1 min
Bit rate                                 : 5 003 kb/s
Width                                    : 1 920 pixels
Height                                   : 1 080 pixels
Display aspect ratio                     : 16:9
Frame rate mode                          : Constant
Frame rate                               : 25.000 FPS
Color space                              : YUV
Chroma subsampling                       : 4:2:0
Bit depth                                : 8 bits
Scan type                                : Progressive
Bits/(Pixel*Frame)                       : 0.097
Stream size                              : 4.23 GiB (91%)
Default                                  : Yes
Forced                                   : No

Audio
ID                                       : 2
Format                                   : AC-3
Format/Info                              : Audio Coding 3
Format settings, Endianness              : Big
Codec ID                                 : A_AC3
Duration                                 : 2 h 1 min
Bit rate mode                            : Constant
Bit rate                                 : 384 kb/s
Channel(s)                               : 6 channels
Channel positions                        : Front: L C R, Side: L R, LFE
Sampling rate                            : 48.0 kHz
Frame rate                               : 31.250 FPS (1536 SPF)
Bit depth                                : 16 bits
Compression mode                         : Lossy
Stream size                              : 333 MiB (7%)
Service kind                             : Complete Main
Default                                  : Yes
Forced                                   : No



Скриншоты:
[+] Всего файлов в раздаче - 1:
Cenzor.2018.WEB-DL.(1080p).Getty.mkv4.65 GB

Похожие раздачи по запросу - цензор:
2019-03-24 U Цензор (2018) WEB-DLRip-AVC от Files-х 1.46 GB ↑ 160 ↓ 37
2019-03-23 U Цензор (2017) WEB-DLRip 1.46 GB ↑ 231 ↓ 90

Отзывы
Зарегистрируйтесь чтобы добавить комментарий.
Обратная связь
Copyleft ©