↑↓Torrent.by
Поиск
Логин: Регистрация
Пароль: Восстановить пароль
Загрузка...

Гринч / The Grinch (2018) BDRemux 1080p от селезень | D, P | iTunes

Скачать grinch-the-2018-bdremux-1080p-ot-selezen-d-p-itunes.torrent
U Магнитная ссылка Размер: 22.39 GB Раздают: 82 Качают: 26 Добавлен: 2019-03-23 07:30:40
Гринч / The Grinch (2018) BDRemux 1080p от селезень | D, P | iTunes

Название: Гринч
Оригинальное название: The Grinch
Год выхода: 2018
Жанр: Мультфильм, фэнтези, комедия, семейный, полнометражный
Режиссер: Ярроу Чейни, Скотт Моужер
В ролях: Бенедикт Камбербэтч, Кэмерон Сили, Рашида Джонс, Фаррелл Уильямс, Тристан О`Хара, Кенан Томпсон, Сэм Лаваньино, Рамон Хэмилтон, Анджела Лэнсбери, Скарлет Эстевез, Майкл Битти, Лори Алан, Ивэн Кишияма

О фильме: Любой бы на месте Гринча позеленел и взбесился. Как порядочный интроверт, он живёт в тёмной пещере на самой вершине горы подальше ото всех, но эти «все» готовят грандиознейшее празднование нового года. Они шумят, всё украшают и дико бесят. Кто бы отказал себе в удовольствии испортить праздник? Гринч решает украсть Новый год.

Страна: Китай, США, Франция, Япония
Студия: Illumination Entertainment , Perfect World Pictures Co., Universal Pictures
Продолжительность: 01:25:49
Перевод(ы):
#1: Дублированный | iTunes
#2: Профессиональный многоголосый | HDRezka Studio

Качество: BDRemux 1080p
Видео: MPEG-4 AVC, 1920x1080, 32 Mbit/s, 23.976 fps
Звук:
Аудио #01: 48 kHz, AC3, 5.1, 384 Kbps | iTunes | RUS |
Аудио #02: 48 kHz, AC3, 2.0, 192 Kbps | HDRezka Studio | RUS |
Аудио #03: 48 kHz, TrueHD, 7.1, 4289 Kbps | Оригинал |  ENG |
Аудио #04: 48 kHz, AC3, 5.1, 448 Kbps | Оригинал |  ENG |
Субтитры: Русские (Forced), английские

Релиз:


[+] MI
General
Unique ID                   : 316452644074065771250972267579248532832 (0xEE128FF438BAF7CBA001A7372C44DD60)
Complete name               : D:Video111The.Grinch.2018.BDREMUX.1080p.seleZen.mkv
Format                      : Matroska
Format version              : Version 4
File size                   : 22.4 GiB
Duration                    : 1 h 25 min
Overall bit rate mode       : Variable
Overall bit rate            : 37.4 Mb/s
Movie name                  : The Grinch 2018 from селезень
Encoded date                : UTC 2019-03-22 04:04:50
Writing application         : mkvmerge v32.0.0 ('Astral Progressions') 64-bit
Writing library             : libebml v1.3.7 + libmatroska v1.5.0

Video
ID                          : 1
Format                      : AVC
Format/Info                 : Advanced Video Codec
Format profile              : High@L4.1
Format settings             : CABAC / 4 Ref Frames
Format settings, CABAC      : Yes
Format settings, ReFrames   : 4 frames
Codec ID                    : V_MPEG4/ISO/AVC
Duration                    : 1 h 25 min
Bit rate mode               : Variable
Bit rate                    : 32.0 Mb/s
Maximum bit rate            : 35.0 Mb/s
Width                       : 1 920 pixels
Height                      : 1 080 pixels
Display aspect ratio        : 16:9
Frame rate mode             : Constant
Frame rate                  : 23.976 (24000/1001) FPS
Color space                 : YUV
Chroma subsampling          : 4:2:0
Bit depth                   : 8 bits
Scan type                   : Progressive
Bits/(Pixel*Frame)          : 0.643
Stream size                 : 19.2 GiB (86%)
Language                    : English
Default                     : Yes
Forced                      : No

Audio #1
ID                          : 2
Format                      : AC-3
Format/Info                 : Audio Coding 3
Commercial name             : Dolby Digital
Codec ID                    : A_AC3
Duration                    : 1 h 25 min
Bit rate mode               : Constant
Bit rate                    : 384 kb/s
Channel(s)                  : 6 channels
Channel layout              : L R C LFE Ls Rs
Sampling rate               : 48.0 kHz
Frame rate                  : 31.250 FPS (1536 SPF)
Bit depth                   : 16 bits
Compression mode            : Lossy
Stream size                 : 236 MiB (1%)
Title                       : iTunes
Language                    : Russian
Service kind                : Complete Main
Default                     : Yes
Forced                      : Yes

Audio #2
ID                          : 3
Format                      : AC-3
Format/Info                 : Audio Coding 3
Commercial name             : Dolby Digital
Codec ID                    : A_AC3
Duration                    : 1 h 25 min
Bit rate mode               : Constant
Bit rate                    : 192 kb/s
Channel(s)                  : 2 channels
Channel layout              : L R
Sampling rate               : 48.0 kHz
Frame rate                  : 31.250 FPS (1536 SPF)
Bit depth                   : 16 bits
Compression mode            : Lossy
Stream size                 : 118 MiB (1%)
Title                       : MVO [HDRezka Studio]
Language                    : Russian
Service kind                : Complete Main
Default                     : No
Forced                      : No

Audio #3
ID                          : 4
Format                      : MLP FBA 16-ch
Format/Info                 : Meridian Lossless Packing FBA with 16-channel presentation
Commercial name             : Dolby TrueHD with Dolby Atmos
Codec ID                    : A_TRUEHD
Duration                    : 1 h 25 min
Bit rate mode               : Variable
Bit rate                    : 4 289 kb/s
Maximum bit rate            : 6 513 kb/s
Channel(s)                  : 8 channels
Channel layout              : L R C LFE Ls Rs Lb Rb
Sampling rate               : 48.0 kHz
Frame rate                  : 1 200.000 FPS (40 SPF)
Compression mode            : Lossless
Stream size                 : 2.57 GiB (11%)
Title                       : Original
Language                    : English
Default                     : No
Forced                      : No
Number of dynamic objects   : 11
Bed channel count           : 1 channel
Bed channel configuration   : LFE

Audio #4
ID                          : 5
Format                      : AC-3
Format/Info                 : Audio Coding 3
Commercial name             : Dolby Digital
Codec ID                    : A_AC3
Duration                    : 1 h 25 min
Bit rate mode               : Constant
Bit rate                    : 448 kb/s
Channel(s)                  : 6 channels
Channel layout              : L R C LFE Ls Rs
Sampling rate               : 48.0 kHz
Frame rate                  : 31.250 FPS (1536 SPF)
Bit depth                   : 16 bits
Compression mode            : Lossy
Stream size                 : 275 MiB (1%)
Language                    : English
Service kind                : Complete Main
Default                     : No
Forced                      : No

Text #1
ID                          : 6
Format                      : UTF-8
Codec ID                    : S_TEXT/UTF8
Codec ID/Info               : UTF-8 Plain Text
Duration                    : 1 h 17 min
Bit rate                    : 2 b/s
Count of elements           : 27
Stream size                 : 1.14 KiB (0%)
Title                       : Forced
Language                    : Russian
Default                     : Yes
Forced                      : Yes

Text #2
ID                          : 7
Format                      : UTF-8
Codec ID                    : S_TEXT/UTF8
Codec ID/Info               : UTF-8 Plain Text
Duration                    : 1 h 17 min
Bit rate                    : 52 b/s
Count of elements           : 1024
Stream size                 : 30.0 KiB (0%)
Title                       : Full
Language                    : English
Default                     : No
Forced                      : No

Text #3
ID                          : 8
Format                      : UTF-8
Codec ID                    : S_TEXT/UTF8
Codec ID/Info               : UTF-8 Plain Text
Duration                    : 1 h 20 min
Bit rate                    : 60 b/s
Count of elements           : 1304
Stream size                 : 35.7 KiB (0%)
Title                       : SDH
Language                    : English
Default                     : No
Forced                      : No

Menu
00:00:00.000                : en:Chapter 1
00:05:40.298                : en:Chapter 2
00:10:35.927                : en:Chapter 3
00:14:14.103                : en:Chapter 4
00:17:45.106                : en:Chapter 5
00:22:19.296                : en:Chapter 6
00:26:28.337                : en:Chapter 7
00:30:45.093                : en:Chapter 8
00:34:46.584                : en:Chapter 9
00:38:37.190                : en:Chapter 10
00:44:40.595                : en:Chapter 11
00:47:27.678                : en:Chapter 12
00:52:37.488                : en:Chapter 13
00:56:33.181                : en:Chapter 14
01:01:04.995                : en:Chapter 15
01:05:34.639                : en:Chapter 16
01:07:23.456                : en:Chapter 17
01:12:14.914                : en:Chapter 18
01:14:12.782                : en:Chapter 19
01:18:08.309                : en:Chapter 20



Скриншоты:
[+] Всего файлов в раздаче - 1:
The.Grinch.2018.BDREMUX.1080p.seleZen.mkv22.39 GB

Показать еще раздачи по запросу гринч:
2019-04-06 U Гринч / The Grinch (2018) BDRip от MegaPeer | Лицензия 1.46 GB ↑ 121 ↓ 25
2019-03-25 U Гринч / The Grinch (2018) BDRip-AVC от HELLYWOOD | iTunes 2.14 GB ↑ 138 ↓ 18
2019-03-24 U Гринч / The Grinch (2018) BDRip 1080p от Generalfilm | iTunes 3.59 GB ↑ 218 ↓ 69
2019-03-24 U Гринч / The Grinch (2018) HDRip от Scarabey | iTunes 1.41 GB ↑ 90 ↓ 37
2019-03-23 U Гринч / The Grinch (2018) UHD BDRemux 2160p от селезень | 4K | HDR | D, P | iTunes 39.51 GB ↑ 69 ↓ 20
2019-03-23 U Гринч / The Grinch (2018) BDRip от ExKinoRay | iTunes 1.42 GB ↑ 193 ↓ 39
2019-03-22 U Гринч / The Grinch (2018) BDRip 1080p от Ash61 | 3D-Video | halfOU | iTunes 5.30 GB ↑ 81 ↓ 27

Отзывы
Зарегистрируйтесь чтобы добавить комментарий.
Обратная связь
Copyleft ©