↑↓Torrent.by
Поиск
Логин: Регистрация
Пароль: Восстановить пароль
Загрузка...

Аквамен / Aquaman (2018) BDRip-HEVC 1080p | IMAX | Лицензия

Скачать akvamen-aquaman-2018-bdrip-hevc-1080p-imax-licenziya.torrent
U Магнитная ссылка Размер: 9.48 GB Раздают: 125 Качают: 84 Добавлен: 2019-03-23 14:32:33
Аквамен / Aquaman (2018) BDRip-HEVC 1080p | IMAX | Лицензия

Название: Аквамен
Оригинальное название: Aquaman
Год выхода: 2018
Производство: Австралия, США / DC Comics, DC Entertainment, Panoramic Pictures, Warner Bros. Pictures
Жанр:  фантастика, фэнтези, боевик, приключения
Продолжительность: 02:23:21

Режиссер: Джеймс Ван
В ролях: Джейсон Момоа, Эмбер Хёрд, Дольф Лундгрен, Николь Кидман, Джули Эндрюс, Патрик Уилсон, Уиллем Дефо, Грэм МакТавиш, Талия Джейд, Джимон Хонсу, Темуэра Моррисон, Майкл Бич

Описание: Действие фильма разворачивается в необъятном и захватывающем подводном мире семи морей, а сюжет знакомит зрителей с историей происхождения получеловека-полуатланта Артура Карри и ключевыми событиями его жизни — теми, что заставят его не только столкнуться с самим собой, но и выяснить, достоин ли он быть тем, кем ему суждено… царем!

Качество: BDRip 1080p-HEVC
Видео: HEVC/H.265, 1920x1080, ~8374 Kbps, 10 bit
Аудио 01: AC3, 6 ch, 448 Kbps | Русский, Дублированный
Аудио 02: AC3, 6 ch, 640 Kbps | Английский, Оригинал
Субтитры: Русские (форсированные, полные), английские (полные)

Релиз:


[+] Mediainfo
Общее
Уникальный идентификатор                 : 314750134599340733775761175328519812103 (0xECCAABC1935693FC02427A020812F407)
Полное имя                               : Киновселенная DC6. Аквамен (2013) [IMAX] BDRip 1080p [HEVC] 10 bit.mkv
Формат                                   : Matroska
Версия формата                           : Version 4
Размер файла                             : 9,48 Гбайт
Продолжительность                        : 2 ч. 23 м.
Общий поток                              : 9464 Кбит/сек
Название фильма                          : Аквамен (2018) Encoded_by_Mr.Fox
Дата кодирования                         : UTC 2019-03-22 18:52:55
Программа кодирования                    : mkvmerge v28.0.0 ('Voice In My Head') 64-bit
Библиотека кодирования                   : libebml v1.3.6 + libmatroska v1.4.9
Обложка                                  : Yes
Attachments                              : cover6.jpg

Видео
Идентификатор                            : 1
Формат                                   : HEVC
Формат/Информация                        : High Efficiency Video Coding
Профиль формата                          : Main 10@L4.1@High
Идентификатор кодека                     : V_MPEGH/ISO/HEVC
Продолжительность                        : 2 ч. 23 м.
Битрейт                                  : 8374 Кбит/сек
Ширина                                   : 1920 пикселей
Высота                                   : 1080 пикселей
Соотношение сторон                       : 16:9
Режим частоты кадров                     : Постоянный
Частота кадров                           : 23,976 (24000/1001) кадра/сек
Цветовое пространство                    : YUV
Субдискретизация насыщенности            : 4:2:0
Битовая глубина                          : 10 бит
Бит/(Пиксели*Кадры)                      : 0.168
Размер потока                            : 8,38 Гбайт (88%)
Заголовок                                : Аквамен (2018) Encoded_by_Mr.Fox
Библиотека кодирования                   : x265 3.0_Au+4-dcbec33bfb0f:[Windows][MSVC 1916][64 bit] 10bit
Настройки программы                      : cpuid=1111039 / frame-threads=3 / numa-pools=12 / wpp / no-pmode / no-pme / no-psnr / no-ssim / log-level=2 / input-csp=1 / input-res=1920x1080 / interlace=0 / total-frames=86302 / level-idc=41 / high-tier=1 / uhd-bd=0 / ref=5 / no-allow-non-conformance / no-repeat-headers / annexb / no-aud / no-hrd / info / hash=0 / no-temporal-layers / open-gop / min-keyint=23 / keyint=240 / gop-lookahead=0 / bframes=8 / b-adapt=2 / b-pyramid / bframe-bias=0 / rc-lookahead=60 / lookahead-slices=4 / scenecut=40 / radl=0 / no-splice / no-intra-refresh / ctu=32 / min-cu-size=8 / rect / amp / max-tu-size=32 / tu-inter-depth=4 / tu-intra-depth=4 / limit-tu=1 / rdoq-level=2 / dynamic-rd=0.00 / no-ssim-rd / signhide / no-tskip / nr-intra=0 / nr-inter=0 / no-constrained-intra / no-strong-intra-smoothing / max-merge=4 / limit-refs=2 / limit-modes / me=3 / subme=7 / merange=57 / temporal-mvp / weightp / weightb / no-analyze-src-pics / deblock=-3:-3 / no-sao / no-sao-non-deblock / rd=6 / no-early-skip / no-rskip / no-fast-intra / no-tskip-fast / no-cu-lossless / no-b-intra / no-splitrd-skip / rdpenalty=0 / psy-rd=2.00 / psy-rdoq=1.00 / no-rd-refine / no-lossless / cbqpoffs=0 / crqpoffs=0 / rc=crf / crf=21.0 / qcomp=0.60 / qpstep=4 / stats-write=0 / stats-read=0 / vbv-maxrate=50000 / vbv-bufsize=50000 / vbv-init=0.9 / crf-max=0.0 / crf-min=0.0 / ipratio=1.40 / pbratio=1.30 / aq-mode=1 / aq-strength=1.00 / no-cutree / zone-count=0 / no-strict-cbr / qg-size=32 / no-rc-grain / qpmax=69 / qpmin=0 / no-const-vbv / sar=1 / overscan=0 / videoformat=5 / range=0 / colorprim=2 / transfer=2 / colormatrix=2 / chromaloc=0 / display-window=0 / max-cll=0,0 / min-luma=0 / max-luma=1023 / log2-max-poc-lsb=8 / vui-timing-info / vui-hrd-info / slices=1 / no-opt-qp-pps / no-opt-ref-list-length-pps / no-multi-pass-opt-rps / scenecut-bias=0.05 / no-opt-cu-delta-qp / no-aq-motion / no-hdr / no-hdr-opt / no-dhdr10-opt / no-idr-recovery-sei / analysis-reuse-level=5 / scale-factor=0 / refine-intra=0 / refine-inter=0 / refine-mv=0 / refine-ctu-distortion=0 / no-limit-sao / ctu-info=0 / no-lowpass-dct / refine-analysis-type=0 / copy-pic=1 / max-ausize-factor=1.0 / no-dynamic-refine / no-single-sei / no-hevc-aq / qp-adaptation-range=1.00
Язык                                     : English
Default                                  : Да
Forced                                   : Нет

Аудио #1
Идентификатор                            : 2
Формат                                   : AC-3
Формат/Информация                        : Audio Coding 3
Коммерческое название                    : Dolby Digital
Идентификатор кодека                     : A_AC3
Продолжительность                        : 2 ч. 23 м.
Вид битрейта                             : Постоянный
Битрейт                                  : 448 Кбит/сек
Каналы                                   : 6 каналов
Channel layout                           : L R C LFE Ls Rs
Частота                                  : 48,0 КГц
Частота кадров                           : 31,250 кадров/сек (1536 SPF)
Битовая глубина                          : 16 бит
Метод сжатия                             : С потерями
Размер потока                            : 459 Мбайт (5%)
Заголовок                                : Дубляж
Язык                                     : Russian
Default                                  : Да
Forced                                   : Нет

Аудио #2
Идентификатор                            : 3
Формат                                   : AC-3
Формат/Информация                        : Audio Coding 3
Коммерческое название                    : Dolby Digital
Идентификатор кодека                     : A_AC3
Продолжительность                        : 2 ч. 23 м.
Вид битрейта                             : Постоянный
Битрейт                                  : 640 Кбит/сек
Каналы                                   : 6 каналов
Channel layout                           : L R C LFE Ls Rs
Частота                                  : 48,0 КГц
Частота кадров                           : 31,250 кадров/сек (1536 SPF)
Битовая глубина                          : 16 бит
Метод сжатия                             : С потерями
Размер потока                            : 656 Мбайт (7%)
Заголовок                                : Оригинал
Язык                                     : English
Default                                  : Нет
Forced                                   : Нет

Текст #1
Идентификатор                            : 4
Формат                                   : UTF-8
Идентификатор кодека                     : S_TEXT/UTF8
Идентификатор кодека/Информация          : UTF-8 Plain Text
Продолжительность                        : 2 ч. 14 м.
Битрейт                                  : 1 бит/сек
ElementCount                             : 27
Размер потока                            : 1,23 Кбайт (0%)
Заголовок                                : Rus Forced
Язык                                     : Russian
Default                                  : Да
Forced                                   : Да

Текст #2
Идентификатор                            : 5
Формат                                   : UTF-8
Идентификатор кодека                     : S_TEXT/UTF8
Идентификатор кодека/Информация          : UTF-8 Plain Text
Продолжительность                        : 2 ч. 22 м.
Битрейт                                  : 55 бит/сек
ElementCount                             : 1119
Размер потока                            : 58,0 Кбайт (0%)
Заголовок                                : Rus Full
Язык                                     : Russian
Default                                  : Нет
Forced                                   : Нет

Текст #3
Идентификатор                            : 6
Формат                                   : UTF-8
Идентификатор кодека                     : S_TEXT/UTF8
Идентификатор кодека/Информация          : UTF-8 Plain Text
Продолжительность                        : 2 ч. 14 м.
Битрейт                                  : 38 бит/сек
ElementCount                             : 1132
Размер потока                            : 37,5 Кбайт (0%)
Заголовок                                : Eng Full
Язык                                     : English
Default                                  : Нет
Forced                                   : Нет

Меню
00:00:00.000                             : en:Chapter 01
00:11:09.294                             : en:Chapter 02
00:22:11.622                             : en:Chapter 03
00:30:11.018                             : en:Chapter 04
00:40:28.718                             : en:Chapter 05
00:50:24.647                             : en:Chapter 06
01:01:15.755                             : en:Chapter 07
01:08:57.091                             : en:Chapter 08
01:21:41.271                             : en:Chapter 09
01:34:50.435                             : en:Chapter 10
01:39:37.430                             : en:Chapter 11
01:49:32.816                             : en:Chapter 12
02:01:36.539                             : en:Chapter 13
02:10:19.895                             : en:Chapter 14



Скриншоты:
[+] Всего файлов в раздаче - 1:
06. Аквамен (2013) [IMAX] BDRip 1080p [HEVC] 10 bit.mkv9.48 GB

Показать еще раздачи по запросу аквамен:
2019-03-25 U Аквамен / Aquaman (2018) BDRip-AVC от Files-x | IMAX Edition | Лицензия 3.42 GB ↑ 41 ↓ 14
2019-03-24 U Аквамен / Aquaman (2018) BDRip-HEVC 1080p от HANNIBAL | IMAX | Лицензия 12.37 GB ↑ 50 ↓ 30
2019-03-21 U Аквамен / Aquaman (2018) HDRip от Scarabey | IMAX Edition | Лицензия 1.45 GB ↑ 197 ↓ 29
2019-03-20 U Аквамен / Aquaman (2018) BDRip от ExKinoRay | IMAX Edition | Лицензия 1.46 GB ↑ 157 ↓ 31
2019-03-20 U Аквамен / Aquaman (2018) BDRip 1080p от qqss44 & MegaPeer | IMAX Edition | Лицензия 9.90 GB ↑ 90 ↓ 56
2019-03-20 U Аквамен / Aquaman (2018) BDRip 1080p от Ash61 | 3D-Video | halfOU | Лицензия 17.29 GB ↑ 132 ↓ 83
2019-03-19 U Аквамен / Aquaman (2018) BDRip-AVC от OlLanDGroup | IMAX Edition | Лицензия 2.18 GB ↑ 162 ↓ 88

Отзывы
Зарегистрируйтесь чтобы добавить комментарий.
Обратная связь
Copyleft ©