↑↓torrent.by
Поиск
Логин: Регистрация
Пароль: Восстановить пароль

Бамблби / Bumblebee (2018) BDRip 720p от селезень | D, P | Лицензия

Скачать bamblbi-bumblebee-2018-bdrip-720p-ot-selezen-d-p-licenziya.torrent
U Магнитная ссылка Размер: 8.21 GB Раздают: 855 Качают: 210 Добавлен: 2019-03-24 05:51:37
Бамблби / Bumblebee (2018) BDRip 720p от селезень | D, P | Лицензия

Название: Бамблби
Оригинальное название: Bumblebee
Год выхода: 2018
Жанр: Фантастика, боевик, приключения
Режиссер: Трэвис Найт
В ролях: Дилан О’Брайен, Хейли Стайнфелд, Хорхе Лендеборг мл., Джон Сина, Джейсон Йен Дракер, Памела Адлон, Стивен Шнайдер, Рикардо Хойос, Джон Ортис, Глинн Тёрмен

О фильме: 1987 год. Скрываясь от преследования, Бамблби находит убежище на автомобильной свалке в калифорнийском городке, где живет Чарли. Девушке скоро исполнится 18, она стремится найти свое место в жизни. И именно она наталкивается на покореженного и сломленного Бамблби. Приведя его в чувство, Чарли моментально осознает: на ее пути оказался не простой желтый Фольксваген Жук…

Страна: США, Китай
Студия: Hasbro Inc., Paramount Pictures, Allspark Pictures, Bay Films, Di Bonaventura Pictures, Tencent Pictures, Tom DeSanto/Don Murphy Production
Продолжительность: 01:53:53
Перевод(ы):
#1: Дублированный | Лицензия
#2: Профессиональный многоголосый | СВ Студия
#3: Профессиональный многоголосый | HDRezka Studio

Качество: BDRip 720p
Видео: MPEG-4 AVC, 1280x720, 8648 Кbit/s, 23.976 fps
Звук:
Аудио #01: 48 kHz, AC3, 5.1, 640 Kbps | Дублированный | RUS |
Аудио #02: 48 kHz, AC3, 2.0, 192 Kbps | Профессиональный многоголосый | RUS |
Аудио #03: 48 kHz, AC3, 2.0, 192 Kbps | Профессиональный многоголосый | RUS |
Аудио #04: 48 kHz, AC3, 5.1, 640 Kbps | Оригинал |  ENG |
Субтитры: Русские (Forced, full), английские

Релиз:


[+] MI
General
Unique ID                   : 179317556847732577473981470822442750599 (0x86E74E237883CBB7DECE0CBF53805287)
Complete name               : D:Video111Bumblebee.2018.BDRip.720p.seleZen.mkv
Format                      : Matroska
Format version              : Version 4
File size                   : 8.21 GiB
Duration                    : 1 h 53 min
Overall bit rate            : 10.3 Mb/s
Movie name                  : Bumblebee 2018 from селезень
Encoded date                : UTC 2019-03-23 14:14:26
Writing application         : mkvmerge v32.0.0 ('Astral Progressions') 64-bit
Writing library             : libebml v1.3.7 + libmatroska v1.5.0

Video
ID                          : 1
Format                      : AVC
Format/Info                 : Advanced Video Codec
Format profile              : High@L4.1
Format settings             : CABAC / 9 Ref Frames
Format settings, CABAC      : Yes
Format settings, ReFrames   : 9 frames
Codec ID                    : V_MPEG4/ISO/AVC
Duration                    : 1 h 53 min
Bit rate                    : 8 648 kb/s
Width                       : 1 280 pixels
Height                      : 720 pixels
Display aspect ratio        : 16:9
Frame rate mode             : Constant
Frame rate                  : 23.976 (24000/1001) FPS
Color space                 : YUV
Chroma subsampling          : 4:2:0
Bit depth                   : 8 bits
Scan type                   : Progressive
Bits/(Pixel*Frame)          : 0.391
Stream size                 : 6.88 GiB (84%)
Title                       : MTeam
Writing library             : x264 core 157 r2938 2b00a84 TnP@MTeam Mod
Encoding settings           : cabac=1 / ref=9 / deblock=1:-3:-3 / analyse=0x3:0x133 / me=umh / subme=10 / psy=1 / psy_rd=1.05:0.00 / mixed_ref=1 / me_range=32 / chroma_me=1 / trellis=2 / 8x8dct=1 / cqm=0 / deadzone=21,11 / fast_pskip=0 / chroma_qp_offset=-2 / threads=12 / lookahead_threads=2 / sliced_threads=0 / nr=0 / decimate=0 / interlaced=0 / bluray_compat=0 / constrained_intra=0 / bframes=8 / b_pyramid=2 / b_adapt=2 / b_bias=0 / direct=3 / weightb=1 / open_gop=0 / weightp=2 / keyint=250 / keyint_min=24 / scenecut=40 / intra_refresh=0 / rc_lookahead=250 / rc=crf / mbtree=0 / crf=16.5 / qcomp=0.60 / qpmin=0 / qpmax=69 / qpstep=4 / vbv_maxrate=62500 / vbv_bufsize=78125 / crf_max=0.0 / nal_hrd=none / filler=0 / ip_ratio=1.30 / pb_ratio=1.20 / aq=3:0.80
Language                    : English
Default                     : Yes
Forced                      : No
Color range                 : Limited
Color primaries             : BT.709
Matrix coefficients         : BT.709

Audio #1
ID                          : 2
Format                      : AC-3
Format/Info                 : Audio Coding 3
Commercial name             : Dolby Digital
Codec ID                    : A_AC3
Duration                    : 1 h 53 min
Bit rate mode               : Constant
Bit rate                    : 640 kb/s
Channel(s)                  : 6 channels
Channel layout              : L R C LFE Ls Rs
Sampling rate               : 48.0 kHz
Frame rate                  : 31.250 FPS (1536 SPF)
Bit depth                   : 16 bits
Compression mode            : Lossy
Stream size                 : 521 MiB (6%)
Title                       : Dub [License]
Language                    : Russian
Service kind                : Complete Main
Default                     : Yes
Forced                      : Yes

Audio #2
ID                          : 3
Format                      : AC-3
Format/Info                 : Audio Coding 3
Commercial name             : Dolby Digital
Codec ID                    : A_AC3
Duration                    : 1 h 53 min
Bit rate mode               : Constant
Bit rate                    : 192 kb/s
Channel(s)                  : 2 channels
Channel layout              : L R
Sampling rate               : 48.0 kHz
Frame rate                  : 31.250 FPS (1536 SPF)
Bit depth                   : 16 bits
Compression mode            : Lossy
Stream size                 : 156 MiB (2%)
Title                       : MVO [СВ Студия]
Language                    : Russian
Service kind                : Complete Main
Default                     : No
Forced                      : No

Audio #3
ID                          : 4
Format                      : AC-3
Format/Info                 : Audio Coding 3
Commercial name             : Dolby Digital
Codec ID                    : A_AC3
Duration                    : 1 h 53 min
Bit rate mode               : Constant
Bit rate                    : 192 kb/s
Channel(s)                  : 2 channels
Channel layout              : L R
Sampling rate               : 48.0 kHz
Frame rate                  : 31.250 FPS (1536 SPF)
Bit depth                   : 16 bits
Compression mode            : Lossy
Stream size                 : 156 MiB (2%)
Title                       : MVO [HDRezka Studio]
Language                    : Russian
Service kind                : Complete Main
Default                     : No
Forced                      : No

Audio #4
ID                          : 5
Format                      : AC-3
Format/Info                 : Audio Coding 3
Commercial name             : Dolby Digital
Codec ID                    : A_AC3
Duration                    : 1 h 53 min
Bit rate mode               : Constant
Bit rate                    : 640 kb/s
Channel(s)                  : 6 channels
Channel layout              : L R C LFE Ls Rs
Sampling rate               : 48.0 kHz
Frame rate                  : 31.250 FPS (1536 SPF)
Bit depth                   : 16 bits
Compression mode            : Lossy
Stream size                 : 521 MiB (6%)
Title                       : Original
Language                    : English
Service kind                : Complete Main
Default                     : No
Forced                      : No

Text #1
ID                          : 6
Format                      : UTF-8
Codec ID                    : S_TEXT/UTF8
Codec ID/Info               : UTF-8 Plain Text
Duration                    : 1 h 45 min
Bit rate                    : 1 b/s
Count of elements           : 29
Stream size                 : 1.14 KiB (0%)
Title                       : Forced
Language                    : Russian
Default                     : Yes
Forced                      : Yes

Text #2
ID                          : 7
Format                      : UTF-8
Codec ID                    : S_TEXT/UTF8
Codec ID/Info               : UTF-8 Plain Text
Duration                    : 1 h 53 min
Bit rate                    : 61 b/s
Count of elements           : 1164
Stream size                 : 51.0 KiB (0%)
Title                       : Full
Language                    : Russian
Default                     : No
Forced                      : No

Text #3
ID                          : 8
Format                      : UTF-8
Codec ID                    : S_TEXT/UTF8
Codec ID/Info               : UTF-8 Plain Text
Duration                    : 1 h 48 min
Bit rate                    : 45 b/s
Count of elements           : 1270
Stream size                 : 36.3 KiB (0%)
Language                    : English
Default                     : No
Forced                      : No

Menu
00:00:00.000                : en:00:00:00.000
00:03:30.710                : en:00:03:30.710
00:12:16.486                : en:00:12:16.486
00:16:56.724                : en:00:16:56.724
00:21:03.053                : en:00:21:03.053
00:26:42.601                : en:00:26:42.601
00:32:33.326                : en:00:32:33.326
00:39:44.090                : en:00:39:44.090
00:45:18.591                : en:00:45:18.591
00:50:43.624                : en:00:50:43.624
00:54:16.253                : en:00:54:16.253
01:01:10.709                : en:01:01:10.709
01:06:26.900                : en:01:06:26.900
01:11:39.545                : en:01:11:39.545
01:16:08.105                : en:01:16:08.105
01:21:37.142                : en:01:21:37.142
01:25:08.603                : en:01:25:08.603
01:30:15.410                : en:01:30:15.410
01:36:46.801                : en:01:36:46.801
01:43:52.560                : en:01:43:52.560
01:49:43.202                : en:01:49:43.202



Скриншоты:
[+] Всего файлов в раздаче - 1:
Bumblebee.2018.BDRip.720p.seleZen.mkv8.21 GB

Похожие раздачи по запросу - бамблби:
2019-03-28 U Бамблби / Bumblebee (2018) BDRip 1080p от qqss44 & MegaPeer | Лицензия 8.70 GB ↑ 398 ↓ 58
2019-03-27 U Бамблби / Bumblebee (2018) BDRip от ExKinoRay | Лицензия 1.46 GB ↑ 593 ↓ 28
2019-03-24 U Бамблби / Bumblebee (2018) BDRip 1080p от селезень | D, P | Лицензия 16.15 GB ↑ 189 ↓ 192
2019-02-02 U Бамблби / Bumblebee (2018) WEBRip 720p от Tapochek | СВ Студия 3.38 GB ↑ 450 ↓ 82
2019-01-30 U Бамблби / Bumblebee (2018) WEBRip от Dalemake | СВ Студия 3К1.45 GB ↑ 748 ↓ 2256

Отзывы
Зарегистрируйтесь чтобы добавить комментарий.
Обратная связь
Copyleft ©