↑↓Torrent.by
Поиск
Логин: Регистрация
Пароль: Восстановить пароль
Загрузка...

Тобол (2019) WEB-DLRip от GeneralFilm | iTunes

Скачать tobol-2019-web-dlrip-ot-generalfilm-itunes.torrent
U Магнитная ссылка Размер: 745.73 MB Раздают: 267 Качают: 40 Добавлен: 2019-03-24 11:55:38
Тобол (2019) WEB-DLRip от GeneralFilm | iTunes

Год выпуска: 2019
Жанр:  Драма
Выпущено: Yellow, Black & White
Режиссер: Игорь Зайцев
В ролях: Дмитрий Назаров, Александр Лазарев мл., Юлия Макарова, Евгений Дятлов, Дмитрий Дюжев, Павел Табаков, Илья Маланин, Еркебулан Даиров, Андрей Бурковский, Агата Муцениеце

О фильме: Молодой офицер новой гвардии Петра I Иван Демарин по заданию царя отправляется в глубину Сибири — в пограничный Тобольск. Здесь Иван встречает свою первую любовь и вместе со своим полком оказывается втянутым в заговор местных князей, охотящихся за золотом Яркенда. Его крепость окружена полчищами диких джунгар и помощи ждать неоткуда…

Качество: WEB-DLRip
Видео: XviD build 73, 688x288 (2.40:1), 24.000 fps, 828 Kbps (0.174 bit/pixel)
Аудио: 48.0 kHz, MP3 2ch, 128 kbps
Продолжительность: 01:48:01
Перевод / Озвучка: Не требуется [Русский]
Cубтитры: нет

Релиз:


[+] MediaInfo

General
Complete name               : D:RazdachiTobol.2018.WEB-DLRip.GeneralFilm.avi
Format                      : AVI
Format/Info                 : Audio Video Interleave
File size                   : 746 MiB
Duration                    : 1 h 48 min
Overall bit rate            : 965 kb/s
Writing application         : VirtualDubMod 1.5.10.3 | www.virtualdub-fr.org || (build 2550/release)
Writing library             : VirtualDubMod build 2550/release

Video
ID                          : 0
Format                      : MPEG-4 Visual
Format profile              : Advanced Simple@L5
Format settings             : BVOP1 / Custom Matrix
Format settings, BVOP       : 1
Format settings, QPel       : No
Format settings, GMC        : No warppoints
Format settings, Matrix     : Custom
Codec ID                    : XVID
Codec ID/Hint               : XviD
Duration                    : 1 h 48 min
Bit rate                    : 828 kb/s
Width                       : 688 pixels
Height                      : 288 pixels
Display aspect ratio        : 2.40:1
Frame rate                  : 24.000 FPS
Color space                 : YUV
Chroma subsampling          : 4:2:0
Bit depth                   : 8 bits
Scan type                   : Progressive
Compression mode            : Lossy
Bits/(Pixel*Frame)          : 0.174
Stream size                 : 640 MiB (86%)
Writing library             : XviD 73

Audio
ID                          : 1
Format                      : MPEG Audio
Format version              : Version 1
Format profile              : Layer 3
Codec ID                    : 55
Codec ID/Hint               : MP3
Duration                    : 1 h 48 min
Bit rate mode               : Constant
Bit rate                    : 128 kb/s
Channel(s)                  : 2 channels
Sampling rate               : 48.0 kHz
Frame rate                  : 41.667 FPS (1152 SPF)
Compression mode            : Lossy
Stream size                 : 98.9 MiB (13%)
Alignment                   : Aligned on interleaves
Interleave, duration        : 42  ms (1.00 video frame)
Interleave, preload duratio : 504  ms
Writing library             : LAME3.99r
Encoding settings           : -m s -V 4 -q 2 -lowpass 17 -b 128



Скриншоты:
[+] Всего файлов в раздаче - 1:
Tobol.2018.WEB-DLRip.GeneralFilm.avi745.73 MB

Показать еще раздачи по запросу тобол:
2019-03-23 U Тобол (2019) WEB-DLRip от Scarabey | iTunes 1.45 GB ↑ 276 ↓ 53
2019-03-22 U Тобол (2019) WEB-DLRip от Generalfilm | КПК | iTunes 407.56 MB ↑ 102 ↓ 13
2019-03-22 U Тобол (2019) WEB-DLRip-AVC | iTunes 1.20 GB ↑ 135 ↓ 38
2019-03-22 U Тобол (2019) WEB-DLRip-AVC от OlLanDGroup | iTunes 1.65 GB ↑ 336 ↓ 66
2019-03-21 U Тобол (2019) WEB-DLRip от MegaPeer | iTunes 1.46 GB ↑ 378 ↓ 167
2019-03-21 U Тобол (2019) WEB-DLRip | iTunes 1.46 GB ↑ 685 ↓ 237
2019-03-21 U Тобол (2019) WEB-DL 1080p | iTunes 3.71 GB ↑ 1642 ↓ 530

Отзывы
Prdenis Оценка: 1
Отстой такой снимать это надо постараться.

Зарегистрируйтесь чтобы добавить комментарий.
Обратная связь
Copyleft ©