↑↓Torrent.by
Поиск
Логин: Регистрация
Пароль: Восстановить пароль
Загрузка...

Юморист (2018) WEB-DL 1080p | iTunes

Скачать yumorist-2018-web-dl-1080p-itunes.torrent
U Магнитная ссылка Размер: 3.90 GB Раздают: 1110 Качают: 658 Добавлен: 2019-03-25 18:13:14
Юморист (2018) WEB-DL 1080p | iTunes

Название: Юморист
Год выпуска: 2018
Жанр:  Драма, биография
Режиссёр: Михаил Идов
В ролях: Алексей Агранович, Юрий Колокольников, Яна Сексте, Вильма Кутавичюте, Семён Штейнберг, Алиса Хазанова, Павел Ильин, Полина Ауг, Юлия Ауг, Ольга Дибцева, Анатолий Котенёв

Описание: Главный герой фильма – успешный юморист Борис Аркадьев. На дворе 1984 год. Страна стоит на пороге перестройки. Герою не на что жаловаться. У него прекрасная семья, его обожают миллионы, а главное он на хорошем счету у людей из власти. Однако Аркадьеву не хватает свободы, как внешней, так и внутренней. Долгие годы ему приходится мириться с окружающим его миром и не говорить то о чем он действительно думает. В итоге вскоре герой из самого смешного человека страны превращается в самого опасного.

Страна: Россия, Латвия, Чехия
Студия: Метрафильмс, Sirena Film
Продолжительность: 01:42:00
Перевод: Не требуется

Файл
Качество: WEB-DL 1080p
Контейнер: MKV
Видео: MPEG-4 AVC, H264, 2.40:1, 1920x808, 24 fps, 5093 kbps
Аудио: Russian: AC3, 6 ch, 384 kbps, 16 bits, 48.0 KHz - iTunes
Субтитры: Нет


[+] MediaInfo
General
Unique ID : 215622768587426487731961069378362789333 (0xA2376F46A04F2D0D92F8447D54BDCDD5)
Complete name : D:Yumorist.2018.WEB-DL.(1080p).Getty.mkv
Format : Matroska
Format version : Version 4 / Version 2
File size : 3.90 GiB
Duration : 1 h 42 min
Overall bit rate : 5 479 kb/s
Movie name : Yumorist.2018.WEB-DL.(1080p).Getty
Encoded date : UTC 2019-03-24 22:46:43
Writing application : mkvmerge v7.8.0 ('River Man') 32bit built on Mar 27 2015 16:18:02
Writing library : libebml v1.3.1 + libmatroska v1.4.2

Video
ID : 1
Format : AVC
Format/Info : Advanced Video Codec
Format profile : High@L4
Format settings : CABAC / 4 Ref Frames
Format settings, CABAC : Yes
Format settings, ReFrames : 4 frames
Format settings, GOP : M=7, N=48
Codec ID : V_MPEG4/ISO/AVC
Duration : 1 h 42 min
Bit rate : 5 093 kb/s
Width : 1 920 pixels
Height : 808 pixels
Display aspect ratio : 2.40:1
Frame rate mode : Constant
Frame rate : 24.000 FPS
Color space : YUV
Chroma subsampling : 4:2:0
Bit depth : 8 bits
Scan type : Progressive
Bits/(Pixel*Frame) : 0.137
Stream size : 3.63 GiB (93%)
Default : Yes
Forced : No

Audio
ID : 2
Format : AC-3
Format/Info : Audio Coding 3
Codec ID : A_AC3
Duration : 1 h 42 min
Bit rate mode : Constant
Bit rate : 384 kb/s
Channel(s) : 6 channels
Channel positions : Front: L C R, Side: L R, LFE
Sampling rate : 48.0 kHz
Frame rate : 31.250 FPS (1536 SPF)
Bit depth : 16 bits
Compression mode : Lossy
Stream size : 280 MiB (7%)
Service kind : Complete Main
Default : Yes
Forced : No



Скриншоты:
[+] Всего файлов в раздаче - 1:
Yumorist.2018.WEB-DL.(1080p).Getty.mkv3.90 GB

Похожие раздачи по запросу - юморист:
2019-03-27 U Юморист (2018) WEB-DLRip от Scarabey | iTunes 1.48 GB ↑ 270 ↓ 55
2019-03-26 U Юморист (2018) WEB-DLRip от OlLanDGroup | iTunes 745.58 MB ↑ 266 ↓ 25
2019-03-26 U Юморист (2018) WEB-DLRip от OlLanDGroup | iTunes 1.45 GB ↑ 279 ↓ 72

Отзывы
Зарегистрируйтесь чтобы добавить комментарий.
Обратная связь
Copyleft ©