↑↓Torrent.by
Поиск
Логин: Регистрация
Пароль: Восстановить пароль
Загрузка...

Юморист (2018) WEB-DLRip от OlLanDGroup | iTunes

Скачать yumorist-2018-web-dlrip-ot-ollandgroup-itunes.torrent
U Магнитная ссылка Размер: 1.45 GB Раздают: 279 Качают: 72 Добавлен: 2019-03-26 04:33:04
Юморист (2018) WEB-DLRip от OlLanDGroup | iTunes

Название: Юморист
Год выхода: 2018
Жанр: Драма, биография
Режиссер: Михаил Идов
В ролях: Алексей Агранович, Юрий Колокольников, Яна Сексте, Вильма Кутавичюте, Семён Штейнберг, Алиса Хазанова, Павел Ильин, Полина Ауг, Юлия Ауг, Ольга Дибцева, Анатолий Котенёв

О фильме: У эстрадного юмориста Бориса Аркадьева в жизни все хорошо: счастливая семья, обожание миллионов, очередь поклонниц и благосклонность властей. Но комику не дает покоя несвобода и внешняя, и внутренняя: чем громче его успех на сцене, тем сильнее в нем назревает протест. И вот уже самый смешной становится слишком опасным.

Страна: Россия, Латвия, Чехия
Студия: Метрафильмс, Sirena Film, Tasse Film
Продолжительность: 01:42:00
Перевод: Не требуется

Файл
Кодек: XviD
Качество: WEB-DLRip
Видео: 720x304 (2.37:1), 24 fps, XviD build 73 ~1642 kbps avg, 0.31 bit/pixel
Звук: 48 kHz, AC3 Dolby Digital, 3/2 (L,C,R,l,r) + LFE ch, ~384.00 kbps avg
Субтитры: Отсутствуют

Семпл

Релиз:


[+] MediaInfo:
General
Complete name                  : D:Мои рипыYumorist.2018.WEB-DLRip.1.46Gb.OlLanDGroup.avi
Format                         : AVI
Format/Info                    : Audio Video Interleave
File size                      : 1.45 GiB
Duration                       : 1 h 42 min
Overall bit rate               : 2 035 kb/s
Writing application            : VirtualDubMod 1.5.10.3 | www.virtualdub-fr.org || (build 2550/release)
Writing library                : VirtualDubMod build 2550/release

Video
ID                             : 0
Format                         : MPEG-4 Visual
Format profile                 : Advanced Simple@L5
Format settings                : BVOP1 / Custom Matrix
Format settings, BVOP          : 1
Format settings, QPel          : No
Format settings, GMC           : No warppoints
Format settings, Matrix        : Custom
Codec ID                       : XVID
Codec ID/Hint                  : XviD
Duration                       : 1 h 42 min
Bit rate                       : 1 642 kb/s
Width                          : 720 pixels
Height                         : 304 pixels
Display aspect ratio           : 2.35:1
Frame rate                     : 24.000 FPS
Color space                    : YUV
Chroma subsampling             : 4:2:0
Bit depth                      : 8 bits
Scan type                      : Progressive
Compression mode               : Lossy
Bits/(Pixel*Frame)             : 0.313
Stream size                    : 1.17 GiB (81%)
Writing library                : XviD 73

Audio
ID                             : 1
Format                         : AC-3
Format/Info                    : Audio Coding 3
Commercial name                : Dolby Digital
Codec ID                       : 2000
Duration                       : 1 h 42 min
Bit rate mode                  : Constant
Bit rate                       : 384 kb/s
Channel(s)                     : 6 channels
Channel layout                 : L R C LFE Ls Rs
Sampling rate                  : 48.0 kHz
Frame rate                     : 31.250 FPS (1536 SPF)
Bit depth                      : 16 bits
Compression mode               : Lossy
Stream size                    : 280 MiB (19%)
Alignment                      : Split accross interleaves
Interleave, duration           : 42  ms (1.00 video frame)
Interleave, preload duration   : 500  ms
Service kind                   : Complete Main



Скриншоты:
[+] Всего файлов в раздаче - 1:
Yumorist.2018.WEB-DLRip.1.46Gb.OlLanDGroup.avi1.45 GB

Похожие раздачи по запросу - юморист:
2019-03-27 U Юморист (2018) WEB-DLRip от Scarabey | iTunes 1.48 GB ↑ 270 ↓ 55
2019-03-26 U Юморист (2018) WEB-DLRip от OlLanDGroup | iTunes 745.58 MB ↑ 266 ↓ 25
2019-03-25 U Юморист (2018) WEB-DL 1080p | iTunes 3.90 GB ↑ 1110 ↓ 658

Отзывы
Зарегистрируйтесь чтобы добавить комментарий.
Обратная связь
Copyleft ©