↑↓Torrent.by
Поиск
Логин: Регистрация
Пароль: Восстановить пароль
Загрузка...

Юморист (2018) WEB-DLRip от OlLanDGroup | iTunes

Скачать yumorist-2018-web-dlrip-ot-ollandgroup-itunes.torrent
U Магнитная ссылка Размер: 745.58 MB Раздают: 266 Качают: 25 Добавлен: 2019-03-26 04:33:07
Юморист (2018) WEB-DLRip от OlLanDGroup | iTunes

Название: Юморист
Год выхода: 2018
Жанр: Драма, биография
Режиссер: Михаил Идов
В ролях: Алексей Агранович, Юрий Колокольников, Яна Сексте, Вильма Кутавичюте, Семён Штейнберг, Алиса Хазанова, Павел Ильин, Полина Ауг, Юлия Ауг, Ольга Дибцева, Анатолий Котенёв

О фильме: У эстрадного юмориста Бориса Аркадьева в жизни все хорошо: счастливая семья, обожание миллионов, очередь поклонниц и благосклонность властей. Но комику не дает покоя несвобода и внешняя, и внутренняя: чем громче его успех на сцене, тем сильнее в нем назревает протест. И вот уже самый смешной становится слишком опасным.

Страна: Россия, Латвия, Чехия
Студия: Метрафильмс, Sirena Film, Tasse Film
Продолжительность: 01:42:00
Перевод: Не требуется

Файл
Кодек: XviD
Качество: WEB-DLRip
Видео: 688x288 (2.39:1), 24 fps, XviD build 73 ~884 kbps avg, 0.19 bit/pixel
Звук: 48 kHz, MPEG Layer 3, 2 ch, ~128.00 kbps avg
Субтитры: Отсутствуют

Семпл

Релиз:


[+] MediaInfo:
General
Complete name                  : D:Мои рипыYumorist.2018.WEB-DLRip.OlLanDGroup.avi
Format                         : AVI
Format/Info                    : Audio Video Interleave
File size                      : 746 MiB
Duration                       : 1 h 42 min
Overall bit rate               : 1 022 kb/s
Writing application            : VirtualDubMod 1.5.10.3 | www.virtualdub-fr.org || (build 2550/release)
Writing library                : VirtualDubMod build 2550/release

Video
ID                             : 0
Format                         : MPEG-4 Visual
Format profile                 : Advanced Simple@L5
Format settings                : BVOP1 / Custom Matrix
Format settings, BVOP          : 1
Format settings, QPel          : No
Format settings, GMC           : No warppoints
Format settings, Matrix        : Custom
Codec ID                       : XVID
Codec ID/Hint                  : XviD
Duration                       : 1 h 42 min
Bit rate                       : 885 kb/s
Width                          : 688 pixels
Height                         : 288 pixels
Display aspect ratio           : 2.40:1
Frame rate                     : 24.000 FPS
Color space                    : YUV
Chroma subsampling             : 4:2:0
Bit depth                      : 8 bits
Scan type                      : Progressive
Compression mode               : Lossy
Bits/(Pixel*Frame)             : 0.186
Stream size                    : 645 MiB (87%)
Writing library                : XviD 73

Audio
ID                             : 1
Format                         : MPEG Audio
Format version                 : Version 1
Format profile                 : Layer 3
Codec ID                       : 55
Codec ID/Hint                  : MP3
Duration                       : 1 h 42 min
Bit rate mode                  : Constant
Bit rate                       : 128 kb/s
Channel(s)                     : 2 channels
Sampling rate                  : 48.0 kHz
Frame rate                     : 41.667 FPS (1152 SPF)
Compression mode               : Lossy
Stream size                    : 93.4 MiB (13%)
Alignment                      : Aligned on interleaves
Interleave, duration           : 42  ms (1.00 video frame)
Interleave, preload duration   : 504  ms
Writing library                : LAME3.99r
Encoding settings              : -m s -V 4 -q 2 -lowpass 17 -b 128



Скриншоты:
[+] Всего файлов в раздаче - 1:
Yumorist.2018.WEB-DLRip.OlLanDGroup.avi745.58 MB

Похожие раздачи по запросу - юморист:
2019-03-27 U Юморист (2018) WEB-DLRip от Scarabey | iTunes 1.48 GB ↑ 270 ↓ 55
2019-03-26 U Юморист (2018) WEB-DLRip от OlLanDGroup | iTunes 1.45 GB ↑ 279 ↓ 72
2019-03-25 U Юморист (2018) WEB-DL 1080p | iTunes 3.90 GB ↑ 1110 ↓ 658

Отзывы
Зарегистрируйтесь чтобы добавить комментарий.
Обратная связь
Copyleft ©