↑↓Torrent.by
Поиск
Логин: Регистрация
Пароль: Восстановить пароль
Загрузка...

Львиная доля (2001) DVDRip-AVC от KORSAR

Скачать lvinaya-dolya-2001-dvdrip-avc-ot-korsar.torrent
U Магнитная ссылка Размер: 2.47 GB Раздают: 45 Качают: 16 Добавлен: 2019-03-26 04:34:45
Львиная доля (2001) DVDRip-AVC от KORSAR

Название: Львиная доля
Год выпуска: 2001
Жанр:  Боевик, криминал
Режиссер: Александр Муратов
В ролях: Николай Караченцов, Юрий Беляев, Чулпан Хаматова, Дмитрий Марьянов, Дмитрий Певцов, Вячеслав Молоков, Николай Чиндяйкин, Владимир Зайцев, Александр Дьяченко, Владимир Большов, Борис Клюев, Степан Старчиков, Любовь Ульянова, Тамара Акулова, Наталья Назарова, Вячеслав Жолобов, Сергей Видинеев, Геннадий Назаров, Олег Комаров, Дмитрий Ульянов, Андрей Межулис, Егор Пазенко, Олег Семисынов, Михаил Леонцев, Андрей Резвый

Описание: Когда-то они были специальным подразделением ФСБ, выполнявшим особо важные задания. Но после одной неудачной операции — похищен портативный ядерный заряд — они были уволены со службы и едва избежали тюрьмы. Однако все незаконченные дела рано или поздно начинают создавать большие проблемы — «потерянный» заряд оказывается в руках у бандитов. И вот преуспевающий бизнесмен, частный телохранитель и спившийся безработный снова объединяются в одну команду, чтобы вернуть старый «должок». С самого начала события складываются вопреки задуманному плану. Герои находятся под плотным контролем преступников, и это может быть связано только с предательством.

Страна: Россия
Продолжительность: 01:43:06
Перевод: Не требуется

Файл
Кодек: х264
Качество: DVDRip-AVC
Видео: MPEG-4 AVC, 702x460@748x460, 25 fps, 3174 Кбит/с
Звук: AC3, 2 ch, 192 Кбит/с
Субтитры: Нет

Релиз:


[+] MediaInfo
x264 [info]: frame I:1126  Avg QP:18.19  size: 64009
x264 [info]: frame P:33580 Avg QP:19.41  size: 34431
x264 [info]: frame B:120882 Avg QP:21.79  size: 10707

======================================

Общее
Уникальный идентификатор                 : 234759138868926217655805961379969872517 (0xB09CF72CC0B3AD5EBD7FBD995845B285)
Полное имя                               : Львиная доля_2001-DVDRip-AVC.KORSAR.mkv
Формат                                   : Matroska
Версия формата                           : Version 2
Размер файла                             : 2,47 Гбайт
Продолжительность                        : 1 ч. 43 м.
Общий поток                              : 3434 Кбит/сек
Дата кодирования                         : UTC 2017-08-11 06:06:31
Программа кодирования                    : mkvmerge v5.8.0 ('No Sleep / Pillow') built on Sep  2 2012 15:37:04
Библиотека кодирования                   : libebml v1.2.3 + libmatroska v1.3.0

Видео
Идентификатор                            : 1
Формат                                   : AVC
Формат/Информация                        : Advanced Video Codec
Профиль формата                          : High@L4.1
Параметр CABAC формата                   : Да
Параметр RefFrames формата               : 13 кадров
Идентификатор кодека                     : V_MPEG4/ISO/AVC
Продолжительность                        : 1 ч. 43 м.
Битрейт                                  : 3174 Кбит/сек
Ширина                                   : 702 пикселя
Высота                                   : 460 пикселей
Соотношение сторон                       : 16:10
Соотношение сторон в оригинале           : 16:10
Режим частоты кадров                     : Постоянный
Частота кадров                           : 25,000 кадров/сек
Цветовое пространство                    : YUV
Субдискретизация насыщенности            : 4:2:0
Битовая глубина                          : 8 бит
Тип развёртки                            : Прогрессивная
Бит/(Пиксели*Кадры)                      : 0.393
Размер потока                            : 2,29 Гбайт (92%)
Библиотека кодирования                   : x264 core 148 r2744kMod b97ae06
Настройки программы                      : cabac=1 / ref=13 / deblock=1:-2:-1 / analyse=0x3:0x133 / me=umh / subme=10 / psy=1 / fade_compensate=0.00 / psy_rd=1.05:0.10 / mixed_ref=1 / me_range=32 / chroma_me=1 / trellis=2 / 8x8dct=1 / cqm=0 / deadzone=21,11 / fast_pskip=1 / chroma_qp_offset=-3 / threads=12 / lookahead_threads=3 / sliced_threads=0 / nr=0 / decimate=1 / interlaced=0 / bluray_compat=0 / constrained_intra=0 / bframes=10 / b_pyramid=2 / b_adapt=2 / b_bias=0 / direct=1 / weightb=1 / open_gop=0 / weightp=2 / keyint=250 / keyint_min=25 / scenecut=40 / intra_refresh=0 / rc=crf / mbtree=0 / crf=17.5000 / qcomp=0.63 / qpmin=0 / qpmax=39 / qpstep=4 / ip_ratio=1.40 / pb_ratio=1.30 / aq=1:0.90
Язык                                     : English
Default                                  : Да
Forced                                   : Нет
Цветовой диапазон                        : Limited
Основные цвета                           : BT.601 PAL
Характеристики трансфера                 : BT.470 System B, BT.470 System G
Коэффициенты матрицы                     : BT.601

Аудио
Идентификатор                            : 2
Формат                                   : AC-3
Формат/Информация                        : Audio Coding 3
Параметр Endianness формата              : Big
Идентификатор кодека                     : A_AC3
Продолжительность                        : 1 ч. 43 м.
Вид битрейта                             : Постоянный
Битрейт                                  : 192 Кбит/сек
Каналы                                   : 2 канала
Расположение каналов                     : Front: L R
Частота                                  : 48,0 КГц
Частота кадров                           : 31,250 кадров/сек (1536 SPF)
Битовая глубина                          : 16 бит
Метод сжатия                             : С потерями
Размер потока                            : 142 Мбайт (6%)
Язык                                     : Russian
Default                                  : Да
Forced                                   : Нет



Скриншоты:
[+] Всего файлов в раздаче - 1:
Львиная доля_2001-DVDRip-AVC.mkv2.47 GB

Похожие раздачи по запросу - львиная:
2013-10-16 U Львиная Армия / Lion Army (2007) HDTVRip 1080p 1К3.88 GB ↑ 6 ↓ 99

Отзывы
Зарегистрируйтесь чтобы добавить комментарий.
Обратная связь
Copyleft ©