↑↓Torrent.by
Поиск
Логин: Регистрация
Пароль: Восстановить пароль
Загрузка...

Русская невеста / The Russian Bride (2019) HDRip-AVC | L1

Скачать russkaya-nevesta-the-russian-bride-2019-hdrip-avc-l1.torrent
U Магнитная ссылка Размер: 1.19 GB Раздают: 392 Качают: 111 Добавлен: 2019-03-26 18:11:54
Русская невеста / The Russian Bride (2019) HDRip-AVC | L1

Название: Русская невеста
Оригинальное название: The Russian Bride
Год выхода: 2019
Жанр: Ужасы, триллер
Режиссер: Майкл С. Ойеда
В ролях: Корбин Бернсен, Оксана Орлан, Кристина Пименова, Лиза Гудман, Майкл Роберт Брэндон, Элисон Корман, Кинэн Джонстон, Грегори О'Галлахер, Ефим Сомен, Кеннет Г. Боден

О фильме:
Нина со своей одиннадцатилетней дочерью Дашей отправляется из России в Америку, рассчитывая выйти замуж за эксцентричного миллиардера Карла Фредерика, в надежде на лучшую жизнь. Прибыв в лютый мороз в его роскошное поместье, которое находится в нескольких милях от цивилизации, мать и дочь подпадают под очарование барона-затворника.
Но надежды на сказочную жизнь рушатся, когда раскрывается трагическое прошлое Карла и спящее до поры до времени безумие барона превращает их жизни в ад. Его зловещие планы становятся очевидными, и мать с дочерью вынуждены бороться за свое выживание...


Страна:
США
Продолжительность: 01:41:00
Перевод: Любительский (одноголосый) [Xixidok]

Файл
Формат: Matroska
Качество: HDRip-AVC
Видео: 720x320 (2.25:1), 1500 kbps, 23.976 fps
Звук: 44.100 kHz, MPEG Layer 3, 2 ch, ~192.00 kbps avg

Трейлер




[+] MI


General
Unique ID                                : 175655746537862430188180982379455394452 (0x842610F389C06A4E832507DA0A3B3294)
Complete name                            : E:The Russian Bride.2019.HDRip.Xixidok.mkv
Format                                   : Matroska
Format version                           : Version 4 / Version 2
File size                                : 1.19 GiB
Duration                                 : 1 h 41 min
Overall bit rate                         : 1 677 kb/s
Encoded date                             : UTC 2019-03-26 06:45:09
Writing application                      : mkvmerge v15.0.0 ('Duel with the Devil') 64-bit
Writing library                          : libebml v1.3.5 + libmatroska v1.4.5

Video
ID                                       : 1
Format                                   : AVC
Format/Info                              : Advanced Video Codec
Format profile                           : High@L4.1
Format settings                          : CABAC / 4 Ref Frames
Format settings, CABAC                   : Yes
Format settings, RefFrames               : 4 frames
Codec ID                                 : V_MPEG4/ISO/AVC
Duration                                 : 1 h 41 min
Bit rate                                 : 1 500 kb/s
Width                                    : 720 pixels
Height                                   : 320 pixels
Display aspect ratio                     : 2.25:1
Frame rate mode                          : Constant
Frame rate                               : 23.976 (24000/1001) FPS
Color space                              : YUV
Chroma subsampling                       : 4:2:0
Bit depth                                : 8 bits
Scan type                                : Progressive
Bits/(Pixel*Frame)                       : 0.272
Stream size                              : 1.05 GiB (88%)
Writing library                          : x264 core 142 r2479 dd79a61
Encoding settings                        : cabac=1 / ref=1 / deblock=1:0:0 / analyse=0x3:0x3 / me=dia / subme=1 / psy=1 / psy_rd=1.00:0.00 / mixed_ref=0 / me_range=16 / chroma_me=1 / trellis=0 / 8x8dct=1 / cqm=0 / deadzone=21,11 / fast_pskip=1 / chroma_qp_offset=0 / threads=24 / lookahead_threads=2 / sliced_threads=0 / nr=0 / decimate=1 / interlaced=0 / bluray_compat=0 / constrained_intra=0 / bframes=3 / b_pyramid=2 / b_adapt=1 / b_bias=0 / direct=1 / weightb=1 / open_gop=0 / weightp=1 / keyint=240 / keyint_min=24 / scenecut=40 / intra_refresh=0 / rc_lookahead=0 / rc=abr / mbtree=0 / bitrate=1500 / ratetol=1.0 / qcomp=0.60 / qpmin=0 / qpmax=69 / qpstep=4 / vbv_maxrate=62500 / vbv_bufsize=78125 / nal_hrd=none / filler=0 / ip_ratio=1.40 / pb_ratio=1.30 / aq=1:1.00
Default                                  : Yes
Forced                                   : No
Color range                              : Limited
Color primaries                          : BT.709
Transfer characteristics                 : BT.709
Matrix coefficients                      : BT.709

Audio
ID                                       : 2
Format                                   : MPEG Audio
Format version                           : Version 1
Format profile                           : Layer 3
Codec ID                                 : A_MPEG/L3
Codec ID/Hint                            : MP3
Duration                                 : 1 h 41 min
Bit rate mode                            : Constant
Bit rate                                 : 192 kb/s
Channel(s)                               : 2 channels
Sampling rate                            : 44.1 kHz
Frame rate                               : 38.281 FPS (1152 SPF)
Compression mode                         : Lossy
Delay relative to video                  : -83 ms
Stream size                              : 140 MiB (11%)
Default                                  : Yes
Forced                                   : No




Скриншоты:
[+] Всего файлов в раздаче - 1:
The Russian Bride.2019.HDRip.Xixidok.mkv1.19 GB

Показать еще раздачи по запросу русская:
2019-04-12 U Русская невеста / The Russian Bride (2019) WEB-DL 1080p от OlLanDGroup | HDRezka Studio 7.09 GB ↑ 94 ↓ 32
2019-03-27 U Русская невеста / The Russian Bride (2019) WEB-DL 1080p | L1 7.14 GB ↑ 82 ↓ 58
2019-01-02 U Однажды в Америке или чисто русская сказка (2018) WEBRip-AVC от Files-x 2К1.37 GB ↑ 212 ↓ 70
2019-01-02 U Однажды в Америке или Чисто русская сказка (2018) WEBRip 720p от ExKinoRay 2.79 GB ↑ 195 ↓ 51
2019-01-02 U Однажды в Америке или чисто русская сказка (2018) WEBRip от Files-x 1.37 GB ↑ 470 ↓ 102
2019-01-02 U Однажды в Америке, или Чисто русская сказка (2018) WEBRip 1080p от Files-x 4.12 GB ↑ 779 ↓ 304
2019-01-02 U Однажды в Америке или Чисто русская сказка (2018) WEBRip от GeneralFilm 1.45 GB ↑ 1178 ↓ 230

Отзывы
Зарегистрируйтесь чтобы добавить комментарий.
Обратная связь
Copyleft ©