↑↓Torrent.by
Поиск
Логин: Регистрация
Пароль: Восстановить пароль
Загрузка...

Русская невеста / The Russian Bride (2019) WEB-DL 1080p | L1

Скачать russkaya-nevesta-the-russian-bride-2019-web-dl-1080p-l1.torrent
U Магнитная ссылка Размер: 7.14 GB Раздают: 82 Качают: 58 Добавлен: 2019-03-27 11:49:06
Русская невеста / The Russian Bride (2019) WEB-DL 1080p | L1

Название: Русская невеста
Оригинальное название: The Russian Bride
Год выхода: 2019
Жанр: Ужасы, триллер
Режиссер: Майкл С. Ойеда
В ролях: Корбин Бернсен, Оксана Орлан, Кристина Пименова, Лиза Гудман, Майкл Роберт Брэндон, Элисон Корман, Кинэн Джонстон, Грегори О'Галлахер, Ефим Сомен, Кеннет Г. Боден

О фильме:
Простая русская женщина знакомится в интернете с американским миллионером-затворником, затем выходит за него замуж и переезжает в США. Вот только на новом месте семейная идиллия длится недолго: супруг вскоре начинает себя очень странно вести, а в результате и вовсе оказывается психопатом.

Страна: США
Студия: Reigning Entertainment, Millman Productions, Edge West Productions
Продолжительность: 01:41:24
Перевод: Любительский одноголосый | Хихидок

Файл
Кодек: AVC
Качество: WEB-DL 1080p | The.Russian.Bride.2019.1080p.AMZN.WEB-DL.DDP5.1.H264-CMRG
Видео: MPEG-4 AVC, 10000 Kбит/с, 1920x872, 23.976 кадр/с
Звук: ► Без Рекламы!
Аудио #1: Русский ( АС3, 2ch, 256 Кбит/с, 48.0 KHz) Любительский (одноголосый, закадровый) Хихидок
Аудио #2: Английский ( E-АС3, 6ch, 640 Кбит/с, 48.0 KHz)
Субтитры: Английские
Tрейлер


[+] MediaInfo
Источник: The.Russian.Bride.2019.1080p.AMZN.WEB-DL.DDP5.1.H264-CMRG
General
Unique ID                      : 238254795441476122428361826690372299901 (0xB33E3459AEF08651AACABA20ED556C7D)
Complete name                  : The.Russian.Bride.2019.WEB-DL.1080p.mkv
Format                         : Matroska
Format version                 : Version 4 / Version 2
File size                      : 7.14 GiB
Duration                       : 1 h 41 min
Overall bit rate               : 10.1 Mb/s
Movie name                     : CMRG
Encoded date                   : UTC 2019-03-26 18:37:19
Writing application            : mkvmerge v7.1.0 ('Good Love') 64bit built on Jul 27 2014 13:06:55
Writing library                : libebml v1.3.0 + libmatroska v1.4.1

Video
ID                             : 1
Format                         : AVC
Format/Info                    : Advanced Video Codec
Format profile                 : High@L4
Format settings, CABAC         : Yes
Format settings, RefFrames     : 4 frames
Codec ID                       : V_MPEG4/ISO/AVC
Duration                       : 1 h 41 min
Bit rate mode                  : Constant
Bit rate                       : 9 183 kb/s
Nominal bit rate               : 10 000 kb/s
Width                          : 1 920 pixels
Height                         : 872 pixels
Display aspect ratio           : 2.2:1
Original display aspect ratio  : 2.2:1
Frame rate mode                : Constant
Frame rate                     : 23.976 (24000/1001) FPS
Color space                    : YUV
Chroma subsampling             : 4:2:0
Bit depth                      : 8 bits
Scan type                      : Progressive
Bits/(Pixel*Frame)             : 0.229
Stream size                    : 6.50 GiB (91%)
Language                       : English
Default                        : Yes
Forced                         : No
Color range                    : Limited
Color primaries                : BT.709
Transfer characteristics       : BT.709
Matrix coefficients            : BT.709

Audio #1
ID                             : 2
Format                         : AC-3
Format/Info                    : Audio Coding 3
Format settings, Endianness    : Big
Codec ID                       : A_AC3
Duration                       : 1 h 41 min
Bit rate mode                  : Constant
Bit rate                       : 256 kb/s
Channel(s)                     : 2 channels
Channel positions              : Front: L R
Sampling rate                  : 48.0 kHz
Frame rate                     : 31.250 FPS (1536 SPF)
Bit depth                      : 16 bits
Compression mode               : Lossy
Stream size                    : 186 MiB (3%)
Language                       : Russian
Service kind                   : Complete Main
Default                        : Yes
Forced                         : No

Audio #2
ID                             : 3
Format                         : E-AC-3
Format/Info                    : Enhanced Audio Coding 3
Format settings, Endianness    : Big
Codec ID                       : A_EAC3
Duration                       : 1 h 41 min
Bit rate mode                  : Constant
Bit rate                       : 640 kb/s
Channel(s)                     : 6 channels
Channel positions              : Front: L C R, Side: L R, LFE
Sampling rate                  : 48.0 kHz
Frame rate                     : 187.500 FPS (256 SPF)
Compression mode               : Lossy
Stream size                    : 464 MiB (6%)
Language                       : English
Service kind                   : Complete Main
Default                        : No
Forced                         : No

Text
ID                             : 4
Format                         : UTF-8
Codec ID                       : S_TEXT/UTF8
Codec ID/Info                  : UTF-8 Plain Text
Duration                       : 1 h 37 min
Bit rate                       : 45 b/s
Count of elements              : 1440
Stream size                    : 32.1 KiB (0%)
Title                          : SDH
Language                       : English
Default                        : No
Forced                         : No



Скриншоты:
[+] Всего файлов в раздаче - 1:
The.Russian.Bride.2019.WEB-DL.1080p.mkv7.14 GB

Показать еще раздачи по запросу русская:
2019-04-12 U Русская невеста / The Russian Bride (2019) WEB-DL 1080p от OlLanDGroup | HDRezka Studio 7.09 GB ↑ 94 ↓ 32
2019-03-26 U Русская невеста / The Russian Bride (2019) HDRip-AVC | L1 1.19 GB ↑ 392 ↓ 111
2019-01-02 U Однажды в Америке или чисто русская сказка (2018) WEBRip-AVC от Files-x 2К1.37 GB ↑ 212 ↓ 70
2019-01-02 U Однажды в Америке или Чисто русская сказка (2018) WEBRip 720p от ExKinoRay 2.79 GB ↑ 195 ↓ 51
2019-01-02 U Однажды в Америке или чисто русская сказка (2018) WEBRip от Files-x 1.37 GB ↑ 470 ↓ 102
2019-01-02 U Однажды в Америке, или Чисто русская сказка (2018) WEBRip 1080p от Files-x 4.12 GB ↑ 779 ↓ 304
2019-01-02 U Однажды в Америке или Чисто русская сказка (2018) WEBRip от GeneralFilm 1.45 GB ↑ 1176 ↓ 230

Отзывы
Зарегистрируйтесь чтобы добавить комментарий.
Обратная связь
Copyleft ©