↑↓Torrent.by
Поиск
Логин: Регистрация
Пароль: Восстановить пароль
Загрузка...

Человек, который убил Гитлера и затем снежного человека / The Man Who Killed Hitler and (2018) WEB-DL 1080p от OlLanDGroup | HDRezka Studio

Скачать chelovek-kotoryy-ubil-gitlera-i-zatem-snezhnogo-cheloveka-the-man-who-killed-hitler-and-2018-web-dl-1080p-ot-ollandgroup-hdrezka-studio.torrent
U Магнитная ссылка Размер: 3.54 GB Раздают: 100 Качают: 62 Добавлен: 2019-03-27 14:42:44
Человек, который убил Гитлера и затем снежного человека / The Man Who Killed Hitler and  (2018) WEB-DL 1080p от OlLanDGroup | HDRezka Studio

Человек, который убил Гитлера и затем снежного человека / The Man Who Killed Hitler and Then The Bigfoot
«An American myth»

Год выпуска: 2018
Страна: Канада, США
Производство: Epic Pictures Releasing, Epic Pictures, Title Media
Жанр:  Драма, приключения

Режиссёр: Роберт Д. Кржиковски
В ролях: Сэм Эллиотт, Эйдан Тёрнер, Рон Ливингстон, Шон Бриджерс, Кэйтлин Фицджералд, Ларри Миллер, Эллар Колтрейн, Ризван Манжи, Марк Стегер, Анастасия Циканава

Перевод: Профессиональный многоголосый | [HDRezka Studio]
Субтитры: Pусские (В.Шуравин, К.Колосов), английские
Реклама: Отсутствует

Описание: Легендарный американский ветеран по имени Кельвин Барр в годы Второй мировой войны участвовал в боевых действиях и даже убил Адольфа Гитлера. Теперь же герой живёт тихой жизнью, однако страна вновь призывает его в строй. С ним связываются ФБР, чтобы выследить и уничтожить снежного человека, поскольку существо, прячущееся в глубине канадских лесов, является носителем вируса, который может вызвать эпидемию.

Качество: WEB-DL 1080p | iTunes Version |
Продолжительность: 01:37:48

Формат: MKV
Видео кодек: MPEG-4 AVC
Аудио кодек: AC3
Видео: 1920x798 (2.40:1), 23,976 fps, x264 ~4 607 kbps avg, 0.125 bit/pixel
Аудио #1: 48 kHz, AC3 Dolby Digital, 2 (L,R) ch, ~192.00 kbps avg | RUS (HDRezka Studio)
Аудио #2: 48 kHz, AC3 Dolby Digital, 3/2 (L,C,R,l,r) + LFE ch, ~384.00 kbps avg | ENG

Дата премьеры (мир): 20 июля 2018
Дата премьеры (РФ):
Цифровой релиз:

Релиз:


[+] MediaInfo

Общее
Уникальный идентификатор                 : 293347031877983962248541205401963118896 (0xDCB09551C7534F68893B376293A8C130)
Полное имя                               : F:OlLanDGroupThe.Man.Who.Killed.Hitler.and.Then.the.Bigfoot.2018.WEB-DL(1080p).OllanDGroup.mkv
Формат                                   : Matroska
Версия формата                           : Version 4 / Version 2
Размер файла                             : 3,54 Гбайт
Продолжительность                        : 1 ч. 37 м.
Общий поток                              : 5185 Кбит/сек
Название фильма                          : The.Man.Who.Killed.Hitler.and.Then.the.Bigfoot.2018   #TorpedoUK#
Дата кодирования                         : UTC 2019-03-27 05:04:07
Программа кодирования                    : mkvmerge v29.0.0 ('Like It Or Not') 64-bit
Библиотека кодирования                   : libebml v1.3.6 + libmatroska v1.4.9

Видео
Идентификатор                            : 1
Формат                                   : AVC
Формат/Информация                        : Advanced Video Codec
Профиль формата                          : High@L4
Параметр CABAC формата                   : Да
Параметр ReFrames формата                : 5 кадров
Идентификатор кодека                     : V_MPEG4/ISO/AVC
Продолжительность                        : 1 ч. 37 м.
Битрейт                                  : 4607 Кбит/сек
Ширина                                   : 1920 пикселей
Высота                                   : 798 пикселей
Соотношение сторон                       : 2,40:1
Режим частоты кадров                     : Постоянный
Частота кадров                           : 23,976 (23976/1000) кадра/сек
Цветовое пространство                    : YUV
Субдискретизация насыщенности            : 4:2:0
Битовая глубина                          : 8 бит
Тип развёртки                            : Прогрессивная
Бит/(Пиксели*Кадры)                      : 0.125
Размер потока                            : 3,15 Гбайт (89%)
Заголовок                                : The.Man.Who.Killed.Hitler.and.Then.the.Bigfoot.2018.1080p.WEB-DL.DD5.1.H264-FGT
Язык                                     : English
Default                                  : Да
Forced                                   : Нет
Цветовой диапазон                        : Limited
Основные цвета                           : BT.709
Характеристики трансфера                 : BT.709
Коэффициенты матрицы                     : BT.709

Аудио #1
Идентификатор                            : 2
Формат                                   : AC-3
Формат/Информация                        : Audio Coding 3
Расширение режима                        : CM (complete main)
Параметр Endianness формата              : Big
Идентификатор кодека                     : A_AC3
Продолжительность                        : 1 ч. 37 м.
Вид битрейта                             : Постоянный
Битрейт                                  : 192 Кбит/сек
Каналы                                   : 2 канала
Расположение каналов                     : Front: L R
Частота                                  : 48,0 КГц
Частота кадров                           : 31,250 кадров/сек (1536 spf)
Битовая глубина                          : 16 бит
Метод сжатия                             : С потерями
Задержка видео                           : -42 мс.
Размер потока                            : 134 Мбайт (4%)
Заголовок                                : MVO [HDRezka Studio]
Язык                                     : Russian
Default                                  : Да
Forced                                   : Нет

Аудио #2
Идентификатор                            : 3
Формат                                   : AC-3
Формат/Информация                        : Audio Coding 3
Расширение режима                        : CM (complete main)
Параметр Endianness формата              : Big
Идентификатор кодека                     : A_AC3
Продолжительность                        : 1 ч. 37 м.
Вид битрейта                             : Постоянный
Битрейт                                  : 384 Кбит/сек
Каналы                                   : 6 каналов
Расположение каналов                     : Front: L C R, Side: L R, LFE
Частота                                  : 48,0 КГц
Частота кадров                           : 31,250 кадров/сек (1536 spf)
Битовая глубина                          : 16 бит
Метод сжатия                             : С потерями
Задержка видео                           : -42 мс.
Размер потока                            : 269 Мбайт (7%)
Заголовок                                : [Original]
Язык                                     : English
Default                                  : Нет
Forced                                   : Нет

Текст #1
Идентификатор                            : 4
Формат                                   : UTF-8
Идентификатор кодека                     : S_TEXT/UTF8
Идентификатор кодека/Информация          : UTF-8 Plain Text
Продолжительность                        : 1 ч. 30 м.
Битрейт                                  : 59 бит/сек
Count of elements                        : 813
Размер потока                            : 39,1 Кбайт (0%)
Заголовок                                : Full
Язык                                     : Russian
Default                                  : Нет
Forced                                   : Нет

Текст #2
Идентификатор                            : 5
Формат                                   : UTF-8
Идентификатор кодека                     : S_TEXT/UTF8
Идентификатор кодека/Информация          : UTF-8 Plain Text
Продолжительность                        : 1 ч. 31 м.
Битрейт                                  : 33 бит/сек
Count of elements                        : 825
Размер потока                            : 22,5 Кбайт (0%)
Заголовок                                : Full
Язык                                     : English
Default                                  : Нет
Forced                                   : Нет

Меню
00:00:00.000                             : en:1
00:10:27.419                             : en:2
00:19:48.229                             : en:3
00:29:54.293                             : en:4
00:41:36.495                             : en:5
00:53:59.279                             : en:6
01:01:08.666                             : en:7
01:11:07.139                             : en:8
01:19:45.907                             : en:9
01:31:51.924                             : en:10



Скриншоты:
[+] Всего файлов в раздаче - 1:
The.Man.Who.Killed.Hitler.and.Then.the.Bigfoot.2018.WEB-DL(1080p).OllanDGroup.mkv3.54 GB

Показать еще раздачи по запросу человек:
2019-07-07 U Человек по имени Смерть / O Nome da Morte (2017) WEBRip 1080p | L1 1.03 GB ↑ 129 ↓ 49
2019-06-18 U Человек-муравей и Оса / Ant-Man and the Wasp (2018) BDRip-HEVC 720p | D 2.01 GB ↑ 49 ↓ 17
2019-06-08 U Человек и закон [эфир 07.06] (2019) SATRip 716.25 MB ↑ 28 ↓ 8
2019-05-24 U Человек, который не чувствует боль / Mard Ko Dard Nahin Hota (2018) WEB-DL 1080 | BadBajo 4.29 GB ↑ 39 ↓ 8
2019-04-14 U Человек-паук: Через вселенные / Spider-Man: Into the Spider-Verse (2018) BDRip 1080p от селезень | Локализованная версия | Лицензия 9.11 GB ↑ 174 ↓ 29
2019-03-22 U Человек-паук: Через вселенные / Spider-Man: Into the Spider-Verse (2018) BDRip 720p от Scarabey | iTunes 1К4.26 GB ↑ 74 ↓ 36
2019-03-19 U Человек-паук: Через вселенные / Spider-Man: Into the Spider-Verse (2018) BDRip 1080p от qqss44 & MegaPeer | iTunes 7.57 GB ↑ 86 ↓ 17

Отзывы
Зарегистрируйтесь чтобы добавить комментарий.
Обратная связь
Copyleft ©