↑↓Torrent.by
Поиск
Логин: Регистрация
Пароль: Восстановить пароль
Загрузка...

Слуга народа [S03] (2019) WEB-DLRip от GeneralFilm

Скачать sluga-naroda-s03-2019-web-dlrip-ot-generalfilm.torrent
U Магнитная ссылка Размер: 2.03 GB Раздают: 399 Качают: 113 Добавлен: 2019-03-29 12:40:22
Слуга народа [S03] (2019) WEB-DLRip от GeneralFilm

Год выпуска: 2019
Жанр:  Комедия
Выпущено: Украина, Студия «Квартал-95»
Режиссер: Алексей Кирющенко
В ролях: Владимир Зеленский, Анна Кошмал, Виктор Сарайкин, Екатерина Кистень, Станислав Боклан, Евгений Кошевой, Александр Пикалов, Юрий Крапов, Елена Кравец

О фильме: В жизни страны наступают темные времена: Василий Голобородько находится в тюрьме по обвинению в организации государственного переворота. Президентскую присягу принимает Дмитрий Суриков. И он – только первый персонаж в ряде темных личностей политики, через которых придется пройти украинскому народу.

Качество: WEB-DLRip
Видео: XviD build 73, 720x400 (16:9), 25.000 fps, 1550 Kbps (0.215
Аудио: 48.0 kHz, AC3, 2/0 ch, 192 kbps
Продолжительность: 1 x 01:05:13, 1 x 00:42:09, 1 x 00:58:34
Перевод: Не требуется [Русский]
Cубтитры: нет

Релиз:
[+] MediaInfo

General
Complete name               : D:RazdachiSluga.Naroda.s03.2019.WEB-DLRip.GeneralFilmSluga.Naroda.s03.e01.avi
Format                      : AVI
Format/Info                 : Audio Video Interleave
File size                   : 818 MiB
Duration                    : 1 h 5 min
Overall bit rate            : 1 753 kb/s
Writing application         : VirtualDubMod 1.5.10.3 | www.virtualdub-fr.org || (build 2550/release)
Writing library             : VirtualDubMod build 2550/release

Video
ID                          : 0
Format                      : MPEG-4 Visual
Format profile              : Advanced Simple@L5
Format settings             : BVOP1 / Custom Matrix
Format settings, BVOP       : 1
Format settings, QPel       : No
Format settings, GMC        : No warppoints
Format settings, Matrix     : Custom
Codec ID                    : XVID
Codec ID/Hint               : XviD
Duration                    : 1 h 5 min
Bit rate                    : 1 551 kb/s
Width                       : 720 pixels
Height                      : 400 pixels
Display aspect ratio        : 16:9
Frame rate                  : 25.000 FPS
Color space                 : YUV
Chroma subsampling          : 4:2:0
Bit depth                   : 8 bits
Scan type                   : Progressive
Compression mode            : Lossy
Bits/(Pixel*Frame)          : 0.215
Stream size                 : 724 MiB (88%)
Writing library             : XviD 73

Audio
ID                          : 1
Format                      : AC-3
Format/Info                 : Audio Coding 3
Commercial name             : Dolby Digital
Codec ID                    : 2000
Duration                    : 1 h 5 min
Bit rate mode               : Constant
Bit rate                    : 192 kb/s
Channel(s)                  : 2 channels
Channel layout              : L R
Sampling rate               : 48.0 kHz
Frame rate                  : 31.250 FPS (1536 SPF)
Bit depth                   : 16 bits
Compression mode            : Lossy
Stream size                 : 89.6 MiB (11%)
Alignment                   : Split accross interleaves
Interleave, duration        : 40  ms (1.00 video frame)
Interleave, preload duratio : 500  ms
Service kind                : Complete Main



Скриншоты:
[+] Всего файлов в раздаче - 3:
Sluga.Naroda.s03.e01.avi817.86 MB
Sluga.Naroda.s03.e02.avi528.80 MB
Sluga.Naroda.s03.e03.avi734.63 MB

Похожие раздачи по запросу - слуга:
2019-03-30 U Слуга народа [S03] (2019) WEB-DL 720p от Files-x 3.70 GB ↑ 204 ↓ 68
2017-11-17 U Слуга народа [S02] (2017) WEB-DLRip от Files-x 8.26 GB ↑ 226 ↓ 103
2017-11-17 U Слуга народа [S02] (2017) WEB-DLRip-AVC от Files-x 1К8.57 GB ↑ 137 ↓ 118
2017-11-17 U Слуга народа [S02] (2017) WEB-DLRip от GeneralFilm 6К4.35 GB ↑ 126 ↓ 240
2015-12-11 U Слуга народа [S01] (2015) WEB-DLRip от GeneralFilm 4.36 GB ↑ 403 ↓ 389
2015-12-10 U Слуга народа [S01] (2015) WEB-DL 1080p от Files-x 11К13.90 GB ↑ 277 ↓ 492

Отзывы
Зарегистрируйтесь чтобы добавить комментарий.
Обратная связь
Copyleft ©