↑↓Torrent.by
Поиск
Логин: Регистрация
Пароль: Восстановить пароль
Загрузка...

Громкая связь (2018) WEB-DL 1080p | iTunes

Скачать gromkaya-svyaz-2018-web-dl-1080p-itunes.torrent
U Магнитная ссылка Размер: 3.32 GB Раздают: 2411 Качают: 799 Добавлен: 2019-03-29 12:40:35
Громкая связь (2018) WEB-DL 1080p | iTunes

Название: Громкая связь
Год выхода: 2018
Жанр: Комедия
Страна: Россия
Перевод: Не требуется
Продолжительность: 01:35:32
Режиссер: Алексей Нужный
В ролях: Анастасия Уколова, Леонид Барац, Ирина Горбачева, Ростислав Хаит, Мария Миронова, Камиль Ларин, Вероника Корниенко, Александр Демидов, Анастасия Ясева и др.

О фильме: Семеро друзей, собравшись в загородном доме, в шутку начинают игру — участники должны зачитывать вслух все приходящие им сообщения, а на звонки отвечать только по громкой связи. Они и представить себе не могут, какие удивительные откровения им предстоит сделать друг о друге.

Файл
Качество: WEB-DL 1080p
Видео: MPEG-4 AVC, 1920x804, 4592 kbps, 24,000 fps
Звук: русский, AC3, 5.1 ch, 48 kHz, 384 kbps | iTunes
Субтитры: нет

Релиз:


[+] MI
General
Уникальный идентификатор                 : 204270640942206568534253761010011561901 (0x99AD182B947600EB9FE08A51A72D5FAD)
Полное имя                               : E:TorrentGromkayaSvazWEBDL1080p.mkv
Формат                                   : Matroska
Версия формата                           : Version 4 / Version 2
Размер файла                             : 3.32 GiB
Продолжительность                        : 1 h 35 min
Общий поток                              : 4 978 kb/s
Дата кодирования                         : UTC 2019-03-29 01:27:24
Программа кодирования                    : mkvmerge v9.5.0 ('Quiet Fire') 64bit
Библиотека кодирования                   : libebml v1.3.4 + libmatroska v1.4.5

Video
Идентификатор                            : 1
Формат                                   : AVC
Формат/Информация                        : Advanced Video Codec
Профиль формата                          : High@L4
Настройки формата                        : CABAC / 5 Ref Frames
Параметр CABAC формата                   : Yes
Параметр RefFrames формата               : 5 frames
Идентификатор кодека                     : V_MPEG4/ISO/AVC
Продолжительность                        : 1 h 35 min
Битрейт                                  : 4 592 kb/s
Ширина                                   : 1 920 pixels
Высота                                   : 804 pixels
Соотношение сторон                       : 2.40:1
Режим частоты кадров                     : Constant
Частота кадров                           : 24.000 FPS
Цветовое пространство                    : YUV
Субдискретизация насыщенности            : 4:2:0
Битовая глубина                          : 8 bits
Тип развёртки                            : Progressive
Бит/(Пиксели*Кадры)                      : 0.124
Размер потока                            : 3.06 GiB (92%)
Язык                                     : Russian
Default                                  : Yes
Forced                                   : No
Цветовой диапазон                        : Limited
Основные цвета                           : BT.709
Характеристики трансфера                 : BT.709
Коэффициенты матрицы                     : BT.709

Audio
Идентификатор                            : 2
Формат                                   : AC-3
Формат/Информация                        : Audio Coding 3
Идентификатор кодека                     : A_AC3
Продолжительность                        : 1 h 35 min
Вид битрейта                             : Constant
Битрейт                                  : 384 kb/s
Каналы                                   : 6 channels
Расположение каналов                     : Front: L C R, Side: L R, LFE
Частота                                  : 48.0 kHz
Частота кадров                           : 31.250 FPS (1536 SPF)
Битовая глубина                          : 16 bits
Метод сжатия                             : Lossy
Размер потока                            : 262 MiB (8%)
Язык                                     : Russian
Default                                  : Yes
Forced                                   : No

Menu
00:00:00.000                             : en:Глава 1
00:08:00.333                             : en:Глава 2
00:16:33.083                             : en:Глава 3
00:24:52.166                             : en:Глава 4
00:32:59.832                             : en:Глава 5
00:41:09.957                             : en:Глава 6
00:49:23.790                             : en:Глава 7
00:57:32.665                             : en:Глава 8
01:05:38.498                             : en:Глава 9
01:14:23.956                             : en:Глава 10
01:22:56.164                             : en:Глава 11




Скриншоты:
[+] Всего файлов в раздаче - 1:
GromkayaSvazWEBDL1080p.mkv3.32 GB

Похожие раздачи по запросу - громкая:
2019-04-01 U Громкая связь (2018) WEB-DLRip от Scarabey | iTunes 744.74 MB ↑ 48 ↓ 21
2019-03-31 U Громкая связь (2018) WEB-DLRip от Generalfilm | КПК | iTunes 362.22 MB ↑ 92 ↓ 19
2019-03-31 U Громкая связь (2018) WEB-DLRip от Scarabey | iTunes 1.44 GB ↑ 172 ↓ 60
2019-03-30 U Громкая связь (2018) WEB-DLRip от Portablius | iTunes 744.43 MB ↑ 112 ↓ 28
2019-03-29 U Громкая связь (2018) WEB-DLRip-AVC | iTunes 743.27 MB ↑ 267 ↓ 104
2019-03-29 U Громкая связь (2018) WEB-DLRip от MegaPeer | iTunes 1.46 GB ↑ 183 ↓ 125

Отзывы
Зарегистрируйтесь чтобы добавить комментарий.
Обратная связь
Copyleft ©