↑↓Torrent.by
Поиск
Логин: Регистрация
Пароль: Восстановить пароль
Загрузка...

Т-34 (2018) BDRip | Лицензия

Скачать t-34-2018-bdrip-licenziya.torrent
U Магнитная ссылка Размер: 1.46 GB Раздают: 328 Качают: 131 Добавлен: 2019-03-29 15:48:40
Т-34 (2018) BDRip | Лицензия

Название: Т-34
Год выхода: 2018
Жанр: Драма, военный, приключения
Страна: Россия
Перевод: Русский язык + одноголосый на немецкую речь | Лицензия BD RUS
Продолжительность: 02:19:08
Режиссер: Алексей Сидоров
В ролях: Александр Петров, Виктор Добронравов, Ирина Старшенбаум, Винценц Кифер, Петр Скворцов, Семен Трескунов, Антон Богданов, Василий Уриевский, Василий Буткевич, Ярослав Штефан и др.

О фильме: Во времена величайших испытаний человечества, когда от каждого действия зависят жизни любимых, два заклятых врага начнут свое противостояние. Оказавшись в плену, вчерашний курсант Ивушкин планирует дерзкий побег. Он собирает свой экипаж и на легендарной «тридцатьчетверке» бросает вызов немецким танковым асам во главе с Ягером. Ради своей любви и Родины он готов идти до конца.

Файл
Формат: AVI
Качество: BDRip | BD RUS
Видео: Xvid 73, 720x304, ~1297 kbps, 24,000 fps
Звук: русский, AC3, 2.0 ch, 48 kHz, 16 bit, 192 kbps
Субтитры: нет

Рип и релиз от:


[+] MI
General
Полное имя                               : E:TorrentT34BDRip.avi
Формат                                   : AVI
Формат/Информация                        : Audio Video Interleave
Профиль формата                          : OpenDML
Размер файла                             : 1.46 GiB
Продолжительность                        : 2 h 19 min
Общий поток                              : 1 501 kb/s
Программа кодирования                    : XviD4PSP 6.0 / 54.27.101

Video
Идентификатор                            : 0
Формат                                   : MPEG-4 Visual
Профиль формата                          : Advanced Simple@L5
Настройки формата                        : BVOP2 / Custom Matrix
Параметр BVOP формата                    : 2
Параметр QPel формата                    : No
Параметр GMC формата                     : No warppoints
Параметр матрицы формата                 : Custom
Идентификатор кодека                     : XVID
Идентификатор кодека/Подсказка           : XviD
Продолжительность                        : 2 h 19 min
Битрейт                                  : 1 297 kb/s
Ширина                                   : 720 pixels
Высота                                   : 304 pixels
Соотношение сторон                       : 2.35:1
Частота кадров                           : 24.000 FPS
Цветовое пространство                    : YUV
Субдискретизация насыщенности            : 4:2:0
Битовая глубина                          : 8 bits
Тип развёртки                            : Progressive
Метод сжатия                             : Lossy
Бит/(Пиксели*Кадры)                      : 0.247
Размер потока                            : 1.26 GiB (86%)
Библиотека кодирования                   : XviD 73

Audio
Идентификатор                            : 1
Формат                                   : AC-3
Формат/Информация                        : Audio Coding 3
Идентификатор кодека                     : 2000
Продолжительность                        : 2 h 19 min
Вид битрейта                             : Constant
Битрейт                                  : 192 kb/s
Каналы                                   : 2 channels
Расположение каналов                     : Front: L R
Частота                                  : 48.0 kHz
Частота кадров                           : 31.250 FPS (1536 SPF)
Битовая глубина                          : 16 bits
Метод сжатия                             : Lossy
Размер потока                            : 191 MiB (13%)
Выравнивание                             : Aligned on interleaves
Продолжительность промежутка             : 32  ms (0.77 video frame)




Скриншоты:
[+] Всего файлов в раздаче - 1:
T34BDRip.avi1.46 GB

Показать еще раздачи по запросу bdrip:
Сегодня U Как приручить дракона 3 / How to Train Your Dragon: The Hidden World (2019) BDRip 720p от селезень | D, P | iTunes 4.87 GB ↑ 422 ↓ 203
Сегодня U Власть / Vice (2018) BDRip 1080p от селезень | D, P | iTunes 14.01 GB ↑ 500 ↓ 549
Сегодня U Власть / Vice (2018) BDRip 720p от селезень | D, P | iTunes 4.69 GB ↑ 1069 ↓ 483
Сегодня U Как приручить дракона 3 / How to Train Your Dragon: The Hidden World (2019) BDRip от Twister & ExKinoRay | iTunes 1.41 GB ↑ 994 ↓ 384
Сегодня U Как приручить дракона 3 / How to Train Your Dragon: The Hidden World (2019) BDRip 1080p от qqss44 & MegaPeer | iTunes 5.37 GB ↑ 1703 ↓ 880
Сегодня U Стекло / Glass (2019) BDRip 720p от Scarabey | iTunes 5.30 GB ↑ 31 ↓ 16
Сегодня U Как приручить дракона 3 / How to Train Your Dragon: The Hidden World (2019) BDRip 1080p от селезень | D, P | iTunes 8.10 GB ↑ 51 ↓ 16

Отзывы
Зарегистрируйтесь чтобы добавить комментарий.
Обратная связь
Copyleft ©