↑↓Torrent.by
Поиск
Логин: Регистрация
Пароль: Восстановить пароль
Загрузка...

Т-34 (2018) BDRip 1080p | Лицензия

Скачать t-34-2018-bdrip-1080p-licenziya.torrent
U Магнитная ссылка Размер: 12.67 GB Раздают: 304 Качают: 238 Добавлен: 2019-03-29 15:48:45
Т-34 (2018) BDRip 1080p | Лицензия

Название: Т-34
Год выхода: 2018
Жанр: Драма, военный, приключения
Страна: Россия
Перевод: Русский язык + одноголосый на немецкую речь | Лицензия BD RUS
Продолжительность: 02:19:08
Режиссер: Алексей Сидоров
В ролях: Александр Петров, Виктор Добронравов, Ирина Старшенбаум, Винценц Кифер, Петр Скворцов, Семен Трескунов, Антон Богданов, Василий Уриевский, Василий Буткевич, Ярослав Штефан и др.

О фильме: Во времена величайших испытаний человечества, когда от каждого действия зависят жизни любимых, два заклятых врага начнут свое противостояние. Оказавшись в плену, вчерашний курсант Ивушкин планирует дерзкий побег. Он собирает свой экипаж и на легендарной «тридцатьчетверке» бросает вызов немецким танковым асам во главе с Ягером. Ради своей любви и Родины он готов идти до конца.

Файл
Качество: BDRip 1080p | BD RUS
Видео: MPEG-4 AVC, 1920x804, 10882 kbps, 24,000 fps
Звук#1: русский, DTS 5.1 ch, 48 kHz, 24 bit, 1509 kbps
Звук#2: русский, AC3, 5.1 ch, 48 kHz, 16 bit,  640 kbps
Субтитры: русские (полные), английские (полные)

Рип и релиз от:


[+] MI
General
Уникальный идентификатор                 : 248974725407025182320027208475736929390 (0xBB4EC9B43014F3F18C64B9313EEDF46E)
Полное имя                               : E:TorrentT34BDRip1080p.mkv
Формат                                   : Matroska
Версия формата                           : Version 4 / Version 2
Размер файла                             : 12.7 GiB
Продолжительность                        : 2 h 19 min
Общий поток                              : 13.0 Mb/s
Дата кодирования                         : UTC 2019-03-29 00:14:12
Программа кодирования                    : mkvmerge v9.5.0 ('Quiet Fire') 64bit
Библиотека кодирования                   : libebml v1.3.4 + libmatroska v1.4.5

Video
Идентификатор                            : 1
Формат                                   : AVC
Формат/Информация                        : Advanced Video Codec
Профиль формата                          : High@L4.1
Настройки формата                        : CABAC / 5 Ref Frames
Параметр CABAC формата                   : Yes
Параметр RefFrames формата               : 5 frames
Идентификатор кодека                     : V_MPEG4/ISO/AVC
Продолжительность                        : 2 h 19 min
Битрейт                                  : 10.9 Mb/s
Ширина                                   : 1 920 pixels
Высота                                   : 804 pixels
Соотношение сторон                       : 2.40:1
Режим частоты кадров                     : Constant
Частота кадров                           : 24.000 FPS
Цветовое пространство                    : YUV
Субдискретизация насыщенности            : 4:2:0
Битовая глубина                          : 8 bits
Тип развёртки                            : Progressive
Бит/(Пиксели*Кадры)                      : 0.294
Размер потока                            : 10.6 GiB (83%)
Библиотека кодирования                   : x264 core 157 r2935 545de2f
Настройки программы                      : cabac=1 / ref=5 / deblock=1:-1:-1 / analyse=0x3:0x113 / me=umh / subme=11 / psy=1 / psy_rd=1.00:0.00 / mixed_ref=1 / me_range=48 / chroma_me=1 / trellis=2 / 8x8dct=1 / cqm=0 / deadzone=21,11 / fast_pskip=0 / chroma_qp_offset=-2 / threads=9 / lookahead_threads=2 / sliced_threads=0 / nr=0 / decimate=0 / interlaced=0 / bluray_compat=0 / constrained_intra=0 / bframes=16 / b_pyramid=2 / b_adapt=2 / b_bias=0 / direct=3 / weightb=1 / open_gop=0 / weightp=2 / keyint=240 / keyint_min=24 / scenecut=40 / intra_refresh=0 / rc_lookahead=120 / rc=2pass / mbtree=0 / bitrate=10882 / ratetol=1.0 / qcomp=0.70 / qpmin=0 / qpmax=69 / qpstep=4 / cplxblur=20.0 / qblur=0.5 / vbv_maxrate=50000 / vbv_bufsize=62500 / nal_hrd=none / filler=0 / ip_ratio=1.40 / pb_ratio=1.30 / aq=3:1.00
Язык                                     : Russian
Default                                  : Yes
Forced                                   : No
Цветовой диапазон                        : Limited
Основные цвета                           : BT.709
Характеристики трансфера                 : BT.709
Коэффициенты матрицы                     : BT.709

Audio #1
Идентификатор                            : 2
Формат                                   : DTS
Формат/Информация                        : Digital Theater Systems
Идентификатор кодека                     : A_DTS
Продолжительность                        : 2 h 19 min
Вид битрейта                             : Constant
Битрейт                                  : 1 509 kb/s
Каналы                                   : 6 channels
Расположение каналов                     : Front: L C R, Side: L R, LFE
Частота                                  : 48.0 kHz
Частота кадров                           : 93.750 FPS (512 SPF)
Битовая глубина                          : 24 bits
Метод сжатия                             : Lossy
Размер потока                            : 1.47 GiB (12%)
Заголовок                                : DTS
Язык                                     : Russian
Default                                  : Yes
Forced                                   : No

Audio #2
Идентификатор                            : 3
Формат                                   : AC-3
Формат/Информация                        : Audio Coding 3
Идентификатор кодека                     : A_AC3
Продолжительность                        : 2 h 19 min
Вид битрейта                             : Constant
Битрейт                                  : 640 kb/s
Каналы                                   : 6 channels
Расположение каналов                     : Front: L C R, Side: L R, LFE
Частота                                  : 48.0 kHz
Частота кадров                           : 31.250 FPS (1536 SPF)
Битовая глубина                          : 16 bits
Метод сжатия                             : Lossy
Размер потока                            : 637 MiB (5%)
Язык                                     : Russian
Default                                  : No
Forced                                   : No

Text #1
Идентификатор                            : 4
Формат                                   : UTF-8
Идентификатор кодека                     : S_TEXT/UTF8
Идентификатор кодека/Информация          : UTF-8 Plain Text
Продолжительность                        : 2 h 11 min
Битрейт                                  : 48 b/s
ElementCount                             : 970
Размер потока                            : 46.3 KiB (0%)
Заголовок                                : rusFull
Язык                                     : Russian
Default                                  : No
Forced                                   : No

Text #2
Идентификатор                            : 5
Формат                                   : UTF-8
Идентификатор кодека                     : S_TEXT/UTF8
Идентификатор кодека/Информация          : UTF-8 Plain Text
Продолжительность                        : 2 h 11 min
Битрейт                                  : 30 b/s
ElementCount                             : 970
Размер потока                            : 29.3 KiB (0%)
Заголовок                                : engFull
Язык                                     : English
Default                                  : No
Forced                                   : No

Menu
00:00:00.000                             : :Chapter 1
00:01:17.875                             : :Chapter 2
00:12:31.250                             : :Chapter 3
00:24:54.041                             : :Chapter 4
00:35:06.916                             : :Chapter 5
00:49:36.291                             : :Chapter 6
01:03:21.041                             : :Chapter 7
01:17:58.583                             : :Chapter 8
01:30:55.458                             : :Chapter 9
01:46:42.666                             : :Chapter 10
02:03:33.916                             : :Chapter 11




Скриншоты:
[+] Всего файлов в раздаче - 1:
T34BDRip1080p.mkv12.67 GB

Показать еще раздачи по запросу bdrip:
Вчера U Время монстров / The Head Hunter (2018) BDRip-AVC от ExKinoRay | HDRezka Studio 1.32 GB ↑ 30 ↓ 16
Вчера U Счастливого нового дня смерти / Happy Death Day 2U (2019) BDRip 1080p от селезень | Лицензия 13.07 GB ↑ 41 ↓ 35
Вчера U Счастливого нового дня смерти / Happy Death Day 2U (2019) BDRip 720p от селезень | Лицензия 6.26 GB ↑ 59 ↓ 42
Вчера U Пираньи Неаполя / La paranza dei bambini (2019) BDRip-AVC | iTunes 1К1.88 GB ↑ 38 ↓ 25
Вчера U Мы / Us (2019) BDRip от MegaPeer | iTunes 1.41 GB ↑ 42 ↓ 10
Вчера U Пираньи Неаполя / La paranza dei bambini (2019) BDRip-AVC от ExKinoRay | iTunes 2.83 GB ↑ 55 ↓ 37
Вчера U Как приручить дракона 3 / How to Train Your Dragon: The Hidden World (2019) BDRip 1080p от qqss44 & MegaPeer | Лицензия 5.55 GB ↑ 60 ↓ 9

Отзывы
Зарегистрируйтесь чтобы добавить комментарий.
Обратная связь
Copyleft ©