↑↓Torrent.by
Поиск
Логин: Регистрация
Пароль: Восстановить пароль
Загрузка...

Громкая связь (2018) WEB-DLRip-AVC | iTunes

Скачать gromkaya-svyaz-2018-web-dlrip-avc-itunes.torrent
U Магнитная ссылка Размер: 743.27 MB Раздают: 252 Качают: 104 Добавлен: 2019-03-29 15:49:15
Громкая связь (2018) WEB-DLRip-AVC | iTunes

Название: Громкая связь
Год выхода: 2018
Жанр:  Комедия
Режиссер: Алексей Нужный
В ролях: Анастасия Уколова, Леонид Барац, Ирина Горбачева, Ростислав Хаит, Мария Миронова, Камиль Ларин, Вероника Корниенко, Александр Демидов, Анастасия Ясева и др.

О фильме:
Семеро друзей, собравшись в загородном доме, в шутку начинают игру — участники должны зачитывать вслух все приходящие им сообщения, а на звонки отвечать только по громкой связи. Они и представить себе не могут, какие удивительные откровения им предстоит сделать друг о друге.

Страна: Россия
Студия: Марс Медиа Энтертейнмент
Продолжительность: 01:35:32
Язык: Русский | iTunes
Субтитры: Нет

Файл
Формат: MKV
Качество: WEB-DLRip-AVC
Видео: x264, 812x340, 24 fps, ~991 kbps
Звук: AAC, 2 ch, ~96 kbps

***Релиз от: -=DoMiNo=-


[+] M/I
x264 info: frame I:1414  Avg QP:14.29  size: 45008
x264 info: frame P:31999 Avg QP:17.60  size: 11664
x264 info: frame B:104154 Avg QP:19.12  size:  2567
x264 info: consecutive B-frames:  1.6%  2.1%  3.3% 60.8%  7.1% 19.4%  2.0%  2.6%  0.4%  0.4%  0.4%

General
Unique ID                   : 64573781193065865628142572517053862300 (0x30947537C4A166A525CBF286CEAA919C)
Complete name               : Громкая связь.(2018).WEB-DLRip-AVC.O.M.[-=DoMiNo=-].mkv
Format                      : Matroska
Format version              : Version 4
File size                   : 743 MiB
Duration                    : 1 h 35 min
Overall bit rate            : 1 088 kb/s
Movie name                  : Громкая связь
Deion                 : Семеро друзей, собравшись в загородном доме, в шутку начинают игру — участники должны зачитывать вслух все приходящие им сообщения, а на звонки отвечать только по громкой связи. Они и представить себе не могут, какие удивительные откровения им предстоит сделать друг о друге.
Encoded date                : UTC 2019-03-29 09:43:51
Writing application         : mkvmerge v32.0.0 ('Astral Progressions') 64-bit
Writing library             : libebml v1.3.7 + libmatroska v1.5.0
Attachments                 : poster.jpg
ACTORS                      : Leonid Barats, Irina Gorbacheva, Rostislav Khait, Mariya Mironova, Kamil Larin, Anastasiya Ukolova, Aleksandr Demidov, Veronika Kornienko
COUNTRY                     : Russia
DATE                        : 2019-02-14
DIRECTOR                    : Alexey Nuzhnyy
GENRE                       : комедия
ITUNEXTC                    : ru-movie|12+|200|
PRODUCER                    : Ruben Dishdishyan, Leonid Barats, Rostislav Khait, Sergey Petreykov, Larisa Blazhko
PUBLISHER                   : Mars Media Entertainment
RATING                      : 7.08
WRITER                      : Sergey Petreykov, Leonid Barats, Rostislav Khait

Video
ID                          : 1
Format                      : AVC
Format/Info                 : Advanced Video Codec
Format profile              : High@L4.1
Format settings             : CABAC / 14 Ref Frames
Format settings, CABAC      : Yes
Format settings, ReFrames   : 14 frames
Codec ID                    : V_MPEG4/ISO/AVC
Duration                    : 1 h 35 min
Bit rate                    : 991 kb/s
Width                       : 812 pixels
Height                      : 340 pixels
Display aspect ratio        : 2.40:1
Frame rate mode             : Constant
Frame rate                  : 24.000 FPS
Color space                 : YUV
Chroma subsampling          : 4:2:0
Bit depth                   : 8 bits
Scan type                   : Progressive
Bits/(Pixel*Frame)          : 0.150
Stream size                 : 677 MiB (91%)
Title                       : RIP_BY_-=DoMiNo=-
Writing library             : x264 core 157 r2935 545de2f
Encoding settings           : cabac=1 / ref=14 / deblock=1:-2:-2 / analyse=0x3:0x133 / me=umh / subme=11 / psy=1 / psy_rd=1.06:0.15 / mixed_ref=1 / me_range=32 / chroma_me=1 / trellis=2 / 8x8dct=1 / cqm=0 / deadzone=21,11 / fast_pskip=0 / chroma_qp_offset=-3 / threads=6 / lookahead_threads=1 / sliced_threads=0 / nr=0 / decimate=1 / interlaced=0 / bluray_compat=0 / constrained_intra=0 / bframes=10 / b_pyramid=2 / b_adapt=2 / b_bias=0 / direct=3 / weightb=1 / open_gop=0 / weightp=2 / keyint=250 / keyint_min=24 / scenecut=40 / intra_refresh=0 / rc_lookahead=250 / rc=2pass / mbtree=1 / bitrate=991 / ratetol=1.0 / qcomp=0.70 / qpmin=0 / qpmax=69 / qpstep=4 / cplxblur=20.0 / qblur=0.5 / vbv_maxrate=50000 / vbv_bufsize=62500 / nal_hrd=none / filler=0 / ip_ratio=1.40 / aq=1:0.80
Language                    : Russian
Default                     : Yes
Forced                      : No
Color range                 : Limited
Color primaries             : BT.709
Transfer characteristics    : BT.709
Matrix coefficients         : BT.709

Audio
ID                          : 2
Format                      : AAC LC SBR
Format/Info                 : Advanced Audio Codec Low Complexity with Spectral Band Replication
Commercial name             : HE-AAC
Format settings             : Explicit
Codec ID                    : A_AAC-2
Duration                    : 1 h 35 min
Bit rate                    : 96.0 kb/s
Channel(s)                  : 2 channels
Channel layout              : L R
Sampling rate               : 48.0 kHz
Frame rate                  : 23.438 FPS (2048 SPF)
Compression mode            : Lossy
Stream size                 : 64.7 MiB (9%)
Title                       : iTunes
Language                    : Russian
Default                     : Yes
Forced                      : No

Menu
00:00:00.000                : en:Глава 01
00:08:08.000                : en:Глава 02
00:16:16.000                : en:Глава 03
00:24:24.000                : en:Глава 04
00:32:32.000                : en:Глава 05
00:40:40.000                : en:Глава 06
00:48:48.000                : en:Глава 07
00:56:56.000                : en:Глава 08
01:05:04.000                : en:Глава 09
01:13:12.000                : en:Глава 10
01:21:20.000                : en:Глава 11
01:29:28.000                : en:Глава 12



Скриншоты:
[+] Всего файлов в раздаче - 1:
Громкая связь.(2018).WEB-DLRip-AVC.O.M.[-=DoMiNo=-].mkv743.27 MB

Похожие раздачи по запросу - громкая:
2019-04-01 U Громкая связь (2018) WEB-DLRip от Scarabey | iTunes 744.74 MB ↑ 42 ↓ 21
2019-03-31 U Громкая связь (2018) WEB-DLRip от Generalfilm | КПК | iTunes 362.22 MB ↑ 80 ↓ 19
2019-03-31 U Громкая связь (2018) WEB-DLRip от Scarabey | iTunes 1.44 GB ↑ 170 ↓ 60
2019-03-30 U Громкая связь (2018) WEB-DLRip от Portablius | iTunes 744.43 MB ↑ 111 ↓ 28
2019-03-29 U Громкая связь (2018) WEB-DL 1080p | iTunes 3.32 GB ↑ 2396 ↓ 799
2019-03-29 U Громкая связь (2018) WEB-DLRip от MegaPeer | iTunes 1.46 GB ↑ 179 ↓ 124

Отзывы
Зарегистрируйтесь чтобы добавить комментарий.
Обратная связь
Copyleft ©