↑↓Torrent.by
Поиск
Логин: Регистрация
Пароль: Восстановить пароль
Загрузка...

Громкая связь (2018) WEB-DLRip от Portablius | iTunes

Скачать gromkaya-svyaz-2018-web-dlrip-ot-portablius-itunes.torrent
U Магнитная ссылка Размер: 744.43 MB Раздают: 112 Качают: 28 Добавлен: 2019-03-30 15:11:50
Громкая связь (2018) WEB-DLRip от Portablius | iTunes

Название: Громкая связь
Год выхода: 2018
Жанр: Комедия
Режиссер: Алексей Нужный
В ролях: Анастасия Уколова, Леонид Барац, Ирина Горбачева, Ростислав Хаит, Мария Миронова, Камиль Ларин, Вероника Корниенко, Александр Демидов, Анастасия Ясева и др.

О фильме: Семеро друзей, собравшись в загородном доме, в шутку начинают игру — участники должны зачитывать вслух все приходящие им сообщения, а на звонки отвечать только по громкой связи. Они и представить себе не могут, какие удивительные откровения им предстоит сделать друг о друге.

Страна: Россия
Продолжительность: 01:35:32
Перевод: Не требуется
Субтитры: Нет

Файл
Кодек: XviD
Качество: WEB-DLRip
Видео: 720x304 (2.37:1), 24.000 fps, XviD build 73 ~952 kbps avg, 0.18 bit/pixel
Звук: 48 kHz, MPEG Layer 3, 2 ch, ~128.00 kbps avg


[+] MediaInfo
General
Complete name               : Gromkaya.Svyazb.2018.WEB-DLRip.Portablius.avi
Format                      : AVI
Format/Info                 : Audio Video Interleave
File size                   : 744 MiB
Duration                    : 1 h 35 min
Overall bit rate            : 1 089 kb/s
Writing application         : VirtualDubMod 1.5.10.3 | www.virtualdub-fr.org || (build 2550/release)
Writing library             : VirtualDubMod build 2550/release

Video
ID                          : 0
Format                      : MPEG-4 Visual
Format profile              : Advanced Simple@L5
Format settings             : BVOP1 / Custom Matrix
Format settings, BVOP       : 1
Format settings, QPel       : No
Format settings, GMC        : No warppoints
Format settings, Matrix     : Custom
Codec ID                    : XVID
Codec ID/Hint               : XviD
Duration                    : 1 h 35 min
Bit rate                    : 952 kb/s
Width                       : 720 pixels
Height                      : 304 pixels
Display aspect ratio        : 2.35:1
Frame rate                  : 24.000 FPS
Color space                 : YUV
Chroma subsampling          : 4:2:0
Bit depth                   : 8 bits
Scan type                   : Progressive
Compression mode            : Lossy
Bits/(Pixel*Frame)          : 0.181
Stream size                 : 651 MiB (87%)
Writing library             : XviD 73

Audio
ID                          : 1
Format                      : MPEG Audio
Format version              : Version 1
Format profile              : Layer 3
Codec ID                    : 55
Codec ID/Hint               : MP3
Duration                    : 1 h 35 min
Bit rate mode               : Constant
Bit rate                    : 128 kb/s
Channel(s)                  : 2 channels
Sampling rate               : 48.0 kHz
Frame rate                  : 41.667 FPS (1152 SPF)
Compression mode            : Lossy
Stream size                 : 87.5 MiB (12%)
Alignment                   : Aligned on interleaves
Interleave, duration        : 42  ms (1.00 video frame)
Interleave, preload duratio : 504  ms
Writing library             : LAME3.99r
Encoding settings           : -m s -V 4 -q 2 -lowpass 17 -b 128




Скриншоты:
[+] Всего файлов в раздаче - 1:
Gromkaya.Svyazb.2018.WEB-DLRip.Portablius.avi744.43 MB

Похожие раздачи по запросу - громкая:
2019-04-01 U Громкая связь (2018) WEB-DLRip от Scarabey | iTunes 744.74 MB ↑ 44 ↓ 21
2019-03-31 U Громкая связь (2018) WEB-DLRip от Generalfilm | КПК | iTunes 362.22 MB ↑ 82 ↓ 19
2019-03-31 U Громкая связь (2018) WEB-DLRip от Scarabey | iTunes 1.44 GB ↑ 170 ↓ 60
2019-03-29 U Громкая связь (2018) WEB-DLRip-AVC | iTunes 743.27 MB ↑ 254 ↓ 104
2019-03-29 U Громкая связь (2018) WEB-DL 1080p | iTunes 3.32 GB ↑ 2401 ↓ 799
2019-03-29 U Громкая связь (2018) WEB-DLRip от MegaPeer | iTunes 1.46 GB ↑ 179 ↓ 124

Отзывы
Зарегистрируйтесь чтобы добавить комментарий.
Обратная связь
Copyleft ©