↑↓Torrent.by
Поиск
Логин: Регистрация
Пароль: Восстановить пароль
Загрузка...

Ральф против интернета / Ralph Breaks the Internet (2018) BDRip 1080p от селезень | Лицензия

Скачать ralf-protiv-interneta-ralph-breaks-the-internet-2018-bdrip-1080p-ot-selezen-licenziya.torrent
U Магнитная ссылка Размер: 7.49 GB Раздают: 46 Качают: 52 Добавлен: 2019-03-31 12:35:03
Ральф против интернета / Ralph Breaks the Internet (2018) BDRip 1080p от селезень | Лицензия

Название: Ральф против интернета
Оригинальное название: Ralph Breaks the Internet
Год выхода: 2018
Жанр: Мультфильм, фэнтези, комедия, приключения, семейный, полнометражный
Режиссер: Фил Джонстон, Рич Мур
В ролях: Джон С. Райлли, Сара Силверман, Галь Гадот, Тараджи П. Хенсон, Джек МакБрайер, Джейн Линч, Алан Тьюдик, Альфред Молина, Эд О`Нил, Шон Джамброун

О фильме: На этот раз Ральф и Ванилопа фон Кекс выйдут за пределы зала игровых автоматов и отправятся покорять бескрайние просторы интернета, который может и не выдержать сокрушительного обаяния громилы.

Страна: США
Студия: Walt Disney Animation Studios, Walt Disney Pictures
Продолжительность: 01:52:31
Перевод: Дублированный | Лицензия

Качество: BDRip 1080p
Видео: MPEG-4 AVC, 1980x804, 8246 Кbit/s, 23.976 fps
Звук:
Аудио #01: 48 kHz, AC3, 5.1, 640 Kbps | Дублированный | RUS |
Аудио #02: 48 kHz, AC3, 5.1, 640 Kbps | Оригинал |  ENG |
Субтитры: Русские (Forced, full), английские

Релиз:


[+] MI
General
Unique ID                   : 162757895721639966764219989640543244431 (0x7A7207CF36A3F3328487DB8D4008908F)
Complete name               : D:Video111Ralph.Breaks.the.Internet.2018.Lic.BDRip.1080p.seleZen.mkv
Format                      : Matroska
Format version              : Version 4
File size                   : 7.49 GiB
Duration                    : 1 h 52 min
Overall bit rate            : 9 527 kb/s
Movie name                  : Ralph Breaks The Internet 2018 from селезень
Encoded date                : UTC 2019-03-31 06:16:03
Writing application         : mkvmerge v32.0.0 ('Astral Progressions') 64-bit
Writing library             : libebml v1.3.7 + libmatroska v1.5.0

Video
ID                          : 1
Format                      : AVC
Format/Info                 : Advanced Video Codec
Format profile              : High@L4.1
Format settings             : CABAC / 5 Ref Frames
Format settings, CABAC      : Yes
Format settings, ReFrames   : 5 frames
Codec ID                    : V_MPEG4/ISO/AVC
Duration                    : 1 h 52 min
Bit rate                    : 8 246 kb/s
Width                       : 1 920 pixels
Height                      : 804 pixels
Display aspect ratio        : 2.40:1
Frame rate mode             : Constant
Frame rate                  : 23.976 (24000/1001) FPS
Color space                 : YUV
Chroma subsampling          : 4:2:0
Bit depth                   : 8 bits
Scan type                   : Progressive
Bits/(Pixel*Frame)          : 0.223
Stream size                 : 6.48 GiB (87%)
Title                       : seleZen
Writing library             : x264 core 148 r2705kMod 3f5ed56
Encoding settings           : cabac=1 / ref=5 / deblock=1:-2:-2 / analyse=0x3:0x133 / me=umh / subme=10 / psy=1 / fade_compensate=0.00 / psy_rd=1.20:0.08 / mixed_ref=1 / me_range=32 / chroma_me=1 / trellis=2 / 8x8dct=1 / cqm=0 / deadzone=21,11 / fast_pskip=0 / chroma_qp_offset=-3 / threads=12 / lookahead_threads=2 / sliced_threads=0 / nr=0 / decimate=0 / interlaced=0 / bluray_compat=0 / constrained_intra=0 / fgo=0 / bframes=8 / b_pyramid=2 / b_adapt=2 / b_bias=0 / direct=3 / weightb=1 / open_gop=0 / weightp=2 / keyint=240 / keyint_min=23 / scenecut=40 / intra_refresh=0 / rc_lookahead=50 / rc=2pass / mbtree=0 / bitrate=8246 / ratetol=1.0 / qcomp=0.60 / qpmin=0 / qpmax=51 / qpstep=4 / cplxblur=20.0 / qblur=0.5 / vbv_maxrate=50000 / vbv_bufsize=62500 / nal_hrd=none / filler=0 / ip_ratio=1.40 / pb_ratio=1.30 / aq=3:0.80
Language                    : English
Default                     : Yes
Forced                      : No

Audio #1
ID                          : 2
Format                      : AC-3
Format/Info                 : Audio Coding 3
Commercial name             : Dolby Digital
Codec ID                    : A_AC3
Duration                    : 1 h 52 min
Bit rate mode               : Constant
Bit rate                    : 640 kb/s
Channel(s)                  : 6 channels
Channel layout              : L R C LFE Ls Rs
Sampling rate               : 48.0 kHz
Frame rate                  : 31.250 FPS (1536 SPF)
Bit depth                   : 16 bits
Compression mode            : Lossy
Stream size                 : 515 MiB (7%)
Title                       : Dub [License]
Language                    : Russian
Service kind                : Complete Main
Default                     : Yes
Forced                      : Yes

Audio #2
ID                          : 3
Format                      : AC-3
Format/Info                 : Audio Coding 3
Commercial name             : Dolby Digital
Codec ID                    : A_AC3
Duration                    : 1 h 52 min
Bit rate mode               : Constant
Bit rate                    : 640 kb/s
Channel(s)                  : 6 channels
Channel layout              : L R C LFE Ls Rs
Sampling rate               : 48.0 kHz
Frame rate                  : 31.250 FPS (1536 SPF)
Bit depth                   : 16 bits
Compression mode            : Lossy
Stream size                 : 515 MiB (7%)
Title                       : Original
Language                    : English
Service kind                : Complete Main
Default                     : No
Forced                      : No

Text #1
ID                          : 4
Format                      : UTF-8
Codec ID                    : S_TEXT/UTF8
Codec ID/Info               : UTF-8 Plain Text
Duration                    : 1 h 41 min
Bit rate                    : 2 b/s
Count of elements           : 46
Stream size                 : 1.56 KiB (0%)
Title                       : Forced
Language                    : Russian
Default                     : Yes
Forced                      : Yes

Text #2
ID                          : 5
Format                      : UTF-8
Codec ID                    : S_TEXT/UTF8
Codec ID/Info               : UTF-8 Plain Text
Duration                    : 1 h 51 min
Bit rate                    : 122 b/s
Count of elements           : 1877
Stream size                 : 101 KiB (0%)
Title                       : Full
Language                    : Russian
Default                     : No
Forced                      : No

Text #3
ID                          : 6
Format                      : UTF-8
Codec ID                    : S_TEXT/UTF8
Codec ID/Info               : UTF-8 Plain Text
Duration                    : 1 h 51 min
Bit rate                    : 77 b/s
Count of elements           : 1886
Stream size                 : 63.1 KiB (0%)
Title                       : Full
Language                    : English
Default                     : No
Forced                      : No

Text #4
ID                          : 7
Format                      : UTF-8
Codec ID                    : S_TEXT/UTF8
Codec ID/Info               : UTF-8 Plain Text
Duration                    : 1 h 51 min
Bit rate                    : 90 b/s
Count of elements           : 2473
Stream size                 : 73.8 KiB (0%)
Title                       : SDH
Language                    : English
Default                     : No
Forced                      : No

Menu
00:00:00.000                : en:00:00:00.000
00:04:09.666                : en:00:04:09.666
00:11:07.417                : en:00:11:07.417
00:17:28.923                : en:00:17:28.923
00:23:43.881                : en:00:23:43.881
00:27:54.589                : en:00:27:54.589
00:34:18.807                : en:00:34:18.807
00:41:39.956                : en:00:41:39.956
00:51:27.709                : en:00:51:27.709
00:58:04.606                : en:00:58:04.606
01:01:50.957                : en:01:01:50.957
01:06:17.306                : en:01:06:17.306
01:12:31.806                : en:01:12:31.806
01:19:10.120                : en:01:19:10.120
01:27:24.030                : en:01:27:24.030
01:38:26.775                : en:01:38:26.775



Скриншоты:
[+] Всего файлов в раздаче - 1:
Ralph.Breaks.the.Internet.2018.Lic.BDRip.1080p.seleZen.mkv7.49 GB

Показать еще раздачи по запросу ральф:
2019-04-01 U Ральф против интернета / Ralph Breaks the Internet (2018) BDRip от ExKinoRay | Лицензия 2.18 GB ↑ 52 ↓ 16
2019-04-01 U Ральф против интернета / Ralph Breaks the Internet (2018) BDRemux 1080p от селезень | Лицензия 22.97 GB ↑ 30 ↓ 7
2019-03-31 U Ральф против интернета / Ralph Breaks the Internet (2018) BDRip 720p от селезень | Лицензия 4.31 GB ↑ 92 ↓ 32
2019-03-31 U Ральф против интернета / Ralph Breaks the Internet (2018) BDRip от MegaPeer | Лицензия 1.46 GB ↑ 1597 ↓ 53
2019-02-23 U Ральф против интернета / Ralph Breaks the Internet (2018) BDRip 720p от Scarabey | iTunes 4.12 GB ↑ 111 ↓ 29
2019-02-23 U Ральф против интернета / Ralph Breaks the Internet (2018) UHD BDRemux 2160p от селезень | 4K | HDR | iTunes 42.01 GB ↑ 51 ↓ 35
2019-02-23 U Ральф против интернета / Ralph Breaks the Internet (2018) BDRip-HEVC 1080p от Donatik | iTunes 3.85 GB ↑ 59 ↓ 15

Отзывы
Зарегистрируйтесь чтобы добавить комментарий.
Обратная связь
Copyleft ©