↑↓Torrent.by
Поиск
Логин: Регистрация
Пароль: Восстановить пароль
Загрузка...

Ральф против интернета / Ralph Breaks the Internet (2018) BDRemux 1080p от селезень | Лицензия

Скачать ralf-protiv-interneta-ralph-breaks-the-internet-2018-bdremux-1080p-ot-selezen-licenziya.torrent
U Магнитная ссылка Размер: 22.97 GB Раздают: 30 Качают: 7 Добавлен: 2019-04-01 05:39:55
Ральф против интернета / Ralph Breaks the Internet (2018) BDRemux 1080p от селезень | Лицензия

Название: Ральф против интернета
Оригинальное название: Ralph Breaks the Internet
Год выхода: 2018
Жанр: Мультфильм, фэнтези, комедия, приключения, семейный, полнометражный
Режиссер: Фил Джонстон, Рич Мур
В ролях: Джон С. Райлли, Сара Силверман, Галь Гадот, Тараджи П. Хенсон, Джек МакБрайер, Джейн Линч, Алан Тьюдик, Альфред Молина, Эд О`Нил, Шон Джамброун

О фильме: На этот раз Ральф и Ванилопа фон Кекс выйдут за пределы зала игровых автоматов и отправятся покорять бескрайние просторы интернета, который может и не выдержать сокрушительного обаяния громилы.

Страна: США
Студия: Walt Disney Animation Studios, Walt Disney Pictures
Продолжительность: 01:52:31
Перевод: Дублированный | Лицензия

Качество: BDRemux 1080p
Видео: MPEG-4 AVC, 1980x1080, 23.8 Mbit/s, 23.976 fps
Звук:
Аудио #01: 48 kHz, AC3, 5.1, 640 Kbps | Дублированный | RUS |
Аудио #02: 48 kHz, DTS-HD MA, 7.1, 4765 Kbps | Оригинал |  ENG |
Субтитры: Русские (Forced, full), английские

Релиз:


[+] MI
General
Unique ID                   : 89221760977711294933034884027346336442 (0x431F7C7215AB0CE1FF8020E0D4843ABA)
Complete name               : D:Video111Ralph.Breaks.the.Internet.2018.Lic.BDREMUX.1080p.seleZen.mkv
Format                      : Matroska
Format version              : Version 4
File size                   : 23.0 GiB
Duration                    : 1 h 52 min
Overall bit rate mode       : Variable
Overall bit rate            : 29.2 Mb/s
Movie name                  : Ralph Breaks The Internet 2018 from селезень
Encoded date                : UTC 2019-03-31 06:33:06
Writing application         : mkvmerge v32.0.0 ('Astral Progressions') 64-bit
Writing library             : libebml v1.3.7 + libmatroska v1.5.0

Video
ID                          : 1
Format                      : AVC
Format/Info                 : Advanced Video Codec
Format profile              : High@L4.1
Format settings             : CABAC / 4 Ref Frames
Format settings, CABAC      : Yes
Format settings, ReFrames   : 4 frames
Format settings, GOP        : M=1, N=12
Codec ID                    : V_MPEG4/ISO/AVC
Duration                    : 1 h 52 min
Bit rate mode               : Variable
Bit rate                    : 23.8 Mb/s
Maximum bit rate            : 33.0 Mb/s
Width                       : 1 920 pixels
Height                      : 1 080 pixels
Display aspect ratio        : 16:9
Frame rate mode             : Constant
Frame rate                  : 23.976 (24000/1001) FPS
Color space                 : YUV
Chroma subsampling          : 4:2:0
Bit depth                   : 8 bits
Scan type                   : Progressive
Bits/(Pixel*Frame)          : 0.479
Stream size                 : 18.7 GiB (81%)
Language                    : English
Default                     : Yes
Forced                      : No

Audio #1
ID                          : 2
Format                      : AC-3
Format/Info                 : Audio Coding 3
Commercial name             : Dolby Digital
Codec ID                    : A_AC3
Duration                    : 1 h 52 min
Bit rate mode               : Constant
Bit rate                    : 640 kb/s
Channel(s)                  : 6 channels
Channel layout              : L R C LFE Ls Rs
Sampling rate               : 48.0 kHz
Frame rate                  : 31.250 FPS (1536 SPF)
Bit depth                   : 16 bits
Compression mode            : Lossy
Stream size                 : 515 MiB (2%)
Title                       : Dub [License]
Language                    : Russian
Service kind                : Complete Main
Default                     : Yes
Forced                      : Yes

Audio #2
ID                          : 3
Format                      : DTS XLL
Format/Info                 : Digital Theater Systems
Commercial name             : DTS-HD Master Audio
Codec ID                    : A_DTS
Duration                    : 1 h 52 min
Bit rate mode               : Variable
Bit rate                    : 4 765 kb/s
Channel(s)                  : 8 channels
Channel layout              : C L R LFE Lb Rb Lss Rss
Sampling rate               : 48.0 kHz
Frame rate                  : 93.750 FPS (512 SPF)
Bit depth                   : 24 bits
Compression mode            : Lossless
Stream size                 : 3.74 GiB (16%)
Title                       : Original
Language                    : English
Default                     : No
Forced                      : No

Text #1
ID                          : 4
Format                      : UTF-8
Codec ID                    : S_TEXT/UTF8
Codec ID/Info               : UTF-8 Plain Text
Duration                    : 1 h 41 min
Bit rate                    : 2 b/s
Count of elements           : 46
Stream size                 : 1.56 KiB (0%)
Title                       : Forced
Language                    : Russian
Default                     : Yes
Forced                      : Yes

Text #2
ID                          : 5
Format                      : UTF-8
Codec ID                    : S_TEXT/UTF8
Codec ID/Info               : UTF-8 Plain Text
Duration                    : 1 h 51 min
Bit rate                    : 122 b/s
Count of elements           : 1877
Stream size                 : 101 KiB (0%)
Title                       : Full
Language                    : Russian
Default                     : No
Forced                      : No

Text #3
ID                          : 6
Format                      : UTF-8
Codec ID                    : S_TEXT/UTF8
Codec ID/Info               : UTF-8 Plain Text
Duration                    : 1 h 51 min
Bit rate                    : 77 b/s
Count of elements           : 1886
Stream size                 : 63.1 KiB (0%)
Title                       : Full
Language                    : English
Default                     : No
Forced                      : No

Text #4
ID                          : 7
Format                      : UTF-8
Codec ID                    : S_TEXT/UTF8
Codec ID/Info               : UTF-8 Plain Text
Duration                    : 1 h 51 min
Bit rate                    : 90 b/s
Count of elements           : 2473
Stream size                 : 73.8 KiB (0%)
Title                       : SDH
Language                    : English
Default                     : No
Forced                      : No

Menu
00:00:00.000                : en:00:00:00.000
00:04:09.666                : en:00:04:09.666
00:11:07.417                : en:00:11:07.417
00:17:28.923                : en:00:17:28.923
00:23:43.881                : en:00:23:43.881
00:27:54.589                : en:00:27:54.589
00:34:18.807                : en:00:34:18.807
00:41:39.956                : en:00:41:39.956
00:51:27.709                : en:00:51:27.709
00:58:04.606                : en:00:58:04.606
01:01:50.957                : en:01:01:50.957
01:06:17.306                : en:01:06:17.306
01:12:31.806                : en:01:12:31.806
01:19:10.120                : en:01:19:10.120
01:27:24.030                : en:01:27:24.030
01:38:26.775                : en:01:38:26.775



Скриншоты:
[+] Всего файлов в раздаче - 1:
Ralph.Breaks.the.Internet.2018.Lic.BDREMUX.1080p.seleZen.mkv22.97 GB

Показать еще раздачи по запросу ральф:
2019-04-01 U Ральф против интернета / Ralph Breaks the Internet (2018) BDRip от ExKinoRay | Лицензия 2.18 GB ↑ 52 ↓ 16
2019-03-31 U Ральф против интернета / Ralph Breaks the Internet (2018) BDRip 720p от селезень | Лицензия 4.31 GB ↑ 92 ↓ 32
2019-03-31 U Ральф против интернета / Ralph Breaks the Internet (2018) BDRip 1080p от селезень | Лицензия 7.49 GB ↑ 46 ↓ 52
2019-03-31 U Ральф против интернета / Ralph Breaks the Internet (2018) BDRip от MegaPeer | Лицензия 1.46 GB ↑ 1597 ↓ 53
2019-02-23 U Ральф против интернета / Ralph Breaks the Internet (2018) BDRip 720p от Scarabey | iTunes 4.12 GB ↑ 111 ↓ 29
2019-02-23 U Ральф против интернета / Ralph Breaks the Internet (2018) UHD BDRemux 2160p от селезень | 4K | HDR | iTunes 42.01 GB ↑ 51 ↓ 35
2019-02-23 U Ральф против интернета / Ralph Breaks the Internet (2018) BDRip-HEVC 1080p от Donatik | iTunes 3.85 GB ↑ 59 ↓ 15

Отзывы
Зарегистрируйтесь чтобы добавить комментарий.
Обратная связь
Copyleft ©