↑↓Torrent.by
Поиск
Логин: Регистрация
Пароль: Восстановить пароль
Загрузка...

Как приручить дракона 3 / How to Train Your Dragon: The Hidden World (2019) WEBRip 1080p от селезень | HDRezka Studio

Скачать kak-priruchit-drakona-3-how-to-train-your-dragon-the-hidden-world-2019-webrip-1080p-ot-selezen-hdrezka-studio.torrent
U Магнитная ссылка Размер: 3.57 GB Раздают: 2171 Качают: 868 Добавлен: 2019-04-02 19:04:51
Как приручить дракона 3 / How to Train Your Dragon: The Hidden World (2019) WEBRip 1080p от селезень | HDRezka Studio

Название: Как приручить дракона 3
Оригинальное название: How to Train Your Dragon: The Hidden World
Год выхода: 2019
Жанр: Мультфильм, фэнтези, боевик, комедия, приключения, семейный, полнометражный
Режиссер: Дин ДеБлуа
В ролях: Кейт Бланшетт, Джерард Батлер, Джона Хилл, Кит Харингтон, Кристен Уиг, Джей Барушель, Кристофер Минц-Плассе, Америка Феррера, Оулавюр Дарри Оулафссон, Ф. Мюррэй Абрахам, Крэйг Фергюсон, Джастин Руппл

О фильме: Когда-то викинги жили в гармонии с драконами. В те времена они делили радость, горе… и последние штаны. Казалось, что так будет всегда, но появление загадочной Дневной Фурии изменило жизнь острова. И теперь Иккинг и Беззубик столкнутся с безжалостным охотником на драконов, жаждущим уничтожить все, что им дорого.

Страна: США
Студия: DreamWorks Animation, Mad Hatter Entertainment
Продолжительность: 01:41:24
Перевод: Профессиональный многоголосый | HDRezka Studio

Качество: WEBRip 1080p
Видео: MPEG-4 AVC, 1920x816, 4458 Kbit/s, 29.970 fps
Звук:
Аудио #01: 48 kHz, AC3, 2.0, 192 Kbps | HDRezka Studio | RUS |
Аудио #02: 48 kHz, AC3, 5.1, 384 Kbps | Оригинал |  ENG |

Релиз:

Семпл

БЕЗ РЕКЛАМЫ.


[+] MI
General
Unique ID                   : 192381850484183117201172002614756175907 (0x90BB658B8967931D64BFA0A3E49EF023)
Complete name               : D:Video111How.to.Train.Your.Dragon.The.Hidden.World.2019.WEBRip.1080p.seleZen.mkv
Format                      : Matroska
Format version              : Version 4
File size                   : 3.57 GiB
Duration                    : 1 h 41 min
Overall bit rate            : 5 035 kb/s
Movie name                  : How to Train Your Dragon The Hidden World 2019 from селезень
Encoded date                : UTC 2019-04-02 07:23:25
Writing application         : mkvmerge v32.0.0 ('Astral Progressions') 64-bit
Writing library             : libebml v1.3.7 + libmatroska v1.5.0

Video
ID                          : 1
Format                      : AVC
Format/Info                 : Advanced Video Codec
Format profile              : High@L4.1
Format settings             : CABAC / 5 Ref Frames
Format settings, CABAC      : Yes
Format settings, ReFrames   : 5 frames
Codec ID                    : V_MPEG4/ISO/AVC
Duration                    : 1 h 41 min
Bit rate                    : 4 458 kb/s
Width                       : 1 920 pixels
Height                      : 816 pixels
Display aspect ratio        : 2.35:1
Frame rate mode             : Constant
Frame rate                  : 29.970 (30000/1001) FPS
Color space                 : YUV
Chroma subsampling          : 4:2:0
Bit depth                   : 8 bits
Scan type                   : Progressive
Bits/(Pixel*Frame)          : 0.095
Stream size                 : 3.16 GiB (89%)
Language                    : English
Default                     : Yes
Forced                      : No
Color range                 : Limited
Color primaries             : BT.709
Transfer characteristics    : BT.709
Matrix coefficients         : BT.709

Audio #1
ID                          : 2
Format                      : AC-3
Format/Info                 : Audio Coding 3
Commercial name             : Dolby Digital
Codec ID                    : A_AC3
Duration                    : 1 h 41 min
Bit rate mode               : Constant
Bit rate                    : 192 kb/s
Channel(s)                  : 2 channels
Channel layout              : L R
Sampling rate               : 48.0 kHz
Frame rate                  : 31.250 FPS (1536 SPF)
Bit depth                   : 16 bits
Compression mode            : Lossy
Delay relative to video     : -1 ms
Stream size                 : 139 MiB (4%)
Language                    : Russian
Service kind                : Complete Main
Default                     : Yes
Forced                      : Yes

Audio #2
ID                          : 3
Format                      : AC-3
Format/Info                 : Audio Coding 3
Commercial name             : Dolby Digital
Codec ID                    : A_AC3
Duration                    : 1 h 41 min
Bit rate mode               : Constant
Bit rate                    : 384 kb/s
Channel(s)                  : 6 channels
Channel layout              : L R C LFE Ls Rs
Sampling rate               : 48.0 kHz
Frame rate                  : 31.250 FPS (1536 SPF)
Bit depth                   : 16 bits
Compression mode            : Lossy
Delay relative to video     : 79 ms
Stream size                 : 278 MiB (8%)
Language                    : English
Service kind                : Complete Main
Default                     : No
Forced                      : No




Скриншоты:
[+] Всего файлов в раздаче - 1:
How.to.Train.Your.Dragon.The.Hidden.World.2019.WEBRip.1080p.seleZen.mkv3.57 GB

Показать еще раздачи по запросу приручить:
Сегодня U Как приручить дракона 3 / How to Train Your Dragon: The Hidden World (2019) BDRip 720p от селезень | D, P | iTunes 4.87 GB ↑ 422 ↓ 203
Сегодня U Как приручить дракона 3 / How to Train Your Dragon: The Hidden World (2019) BDRip от Twister & ExKinoRay | iTunes 1.41 GB ↑ 994 ↓ 384
Сегодня U Как приручить дракона 3 / How to Train Your Dragon: The Hidden World (2019) BDRip 1080p от qqss44 & MegaPeer | iTunes 5.37 GB ↑ 1703 ↓ 880
Сегодня U Как приручить дракона 3 / How to Train Your Dragon: The Hidden World (2019) BDRip 1080p от селезень | D, P | iTunes 8.10 GB ↑ 51 ↓ 16
2019-04-14 U Как приручить дракона 3 / How to Train Your Dragon: The Hidden World (2019) BDRip 1080p от Ash61 | 3D-Video | halfOU | Line 8.74 GB ↑ 72 ↓ 55
2019-04-13 U Как приручить дракона 3 / How to Train Your Dragon: The Hidden World (2019) HDRip от Scarabey | Line 1.40 GB ↑ 125 ↓ 29
2019-04-09 U Как приручить дракона 3 / How to Train Your Dragon: The Hidden World (2019) BDRip-AVC от OlLanDGroup | D, P | Line 2.10 GB ↑ 85 ↓ 35

Отзывы
Зарегистрируйтесь чтобы добавить комментарий.
Обратная связь
Copyleft ©