↑↓Torrent.by
Поиск
Логин: Регистрация
Пароль: Восстановить пароль
Загрузка...

Т-34 (2018) BDRip от GeneralFilm | Лицензия

Скачать t-34-2018-bdrip-ot-generalfilm-licenziya.torrent
U Магнитная ссылка Размер: 1.46 GB Раздают: 106 Качают: 29 Добавлен: 2019-04-02 19:09:50
Т-34 (2018) BDRip от GeneralFilm | Лицензия

Оригинальное название: Т-34
Год выпуска: 2018
Жанр:  драма, военный, приключения
Выпущено: Россия, АМЕДИА, Марс Медиа Энтертейнмент
Режиссер: Алексей Сидоров
В ролях: Александр Петров, Виктор Добронравов, Ирина Старшенбаум, Винценц Кифер, Петр Скворцов, Семен Трескунов, Артем Быстров, Антон Богданов, Василий Уриевский, Василий Буткевич

О фильме: Во времена величайших испытаний человечества, когда от каждого действия зависят жизни любимых, два заклятых врага начнут свое противостояние. Оказавшись в плену, вчерашний курсант Ивушкин планирует дерзкий побег. Он собирает свой экипаж и на легендарной «тридцатьчетверке» бросает вызов немецким танковым асам во главе с Ягером. Ради своей любви и Родины он готов идти до конца.

Качество: BDRip
Видео: XviD build 73, 720x304 (2.37:1), 24.000 fps, 1298 Kbps (0.247 bit/pixel)
Аудио: 48.0 kHz, AC3, 2/0 ch, 192 kbps
Продолжительность: 02:19:08
Перевод: Не требуется | Лицензия
Cубтитры: нет

Релиз:


[+] MediaInfo

General
Complete name               : D:RazdachiT34.2018.BDRip.GeneralFilm.avi
Format                      : AVI
Format/Info                 : Audio Video Interleave
File size                   : 1.46 GiB
Duration                    : 2 h 19 min
Overall bit rate            : 1 499 kb/s
Writing application         : VirtualDubMod 1.5.10.3 | www.virtualdub-fr.org || (build 2550/release)
Writing library             : VirtualDubMod build 2550/release

Video
ID                          : 0
Format                      : MPEG-4 Visual
Format profile              : Advanced Simple@L5
Format settings             : BVOP1 / Custom Matrix
Format settings, BVOP       : 1
Format settings, QPel       : No
Format settings, GMC        : No warppoints
Format settings, Matrix     : Custom
Codec ID                    : XVID
Codec ID/Hint               : XviD
Duration                    : 2 h 19 min
Bit rate                    : 1 298 kb/s
Width                       : 720 pixels
Height                      : 304 pixels
Display aspect ratio        : 2.35:1
Frame rate                  : 24.000 FPS
Color space                 : YUV
Chroma subsampling          : 4:2:0
Bit depth                   : 8 bits
Scan type                   : Progressive
Compression mode            : Lossy
Bits/(Pixel*Frame)          : 0.247
Stream size                 : 1.26 GiB (87%)
Writing library             : XviD 73

Audio
ID                          : 1
Format                      : AC-3
Format/Info                 : Audio Coding 3
Commercial name             : Dolby Digital
Codec ID                    : 2000
Duration                    : 2 h 19 min
Bit rate mode               : Constant
Bit rate                    : 192 kb/s
Channel(s)                  : 6 channels
Channel layout              : L R C LFE Ls Rs
Sampling rate               : 48.0 kHz
Frame rate                  : 31.250 FPS (1536 SPF)
Bit depth                   : 16 bits
Compression mode            : Lossy
Stream size                 : 191 MiB (13%)
Alignment                   : Split accross interleaves
Interleave, duration        : 42  ms (1.00 video frame)
Interleave, preload duratio : 500  ms
Service kind                : Complete Main



Скриншоты:
[+] Всего файлов в раздаче - 1:
T34.2018.BDRip.GeneralFilm.avi1.46 GB

Показать еще раздачи по запросу bdrip:
Сегодня U Ведьмы / Hagazussa (2017) BDRip 1080p | D 8.18 GB ↑ 77 ↓ 42
Сегодня U Земля гангстеров / Gangster Land / In the Absence of Good Men (2017) BDRip 1080p | HDRezka Studio 8.73 GB ↑ 29 ↓ 15
Сегодня U Видок: Охотник на призраков / Видок: Император Парижа / L'Empereur de Paris (2018) BDRip-HEVC 1080p | HDRezka Studio 6.21 GB ↑ 33 ↓ 10
Сегодня U Малыш Кид / The Kid (2019) BDRip 720p | D, P | iTunes 4.45 GB ↑ 98 ↓ 43
Сегодня U Малыш Кид / The Kid (2019) BDRip 1080p | D, P | iTunes 10.39 GB ↑ 150 ↓ 44
Сегодня U Встреча выпускников 1.0 / Klassentreffen 1.0 (2018) BDRip 1080p | iTunes 7.85 GB ↑ 156 ↓ 60
Сегодня U Малыш Кид / The Kid (2019) BDRip от MegaPeer | iTunes 1.41 GB ↑ 152 ↓ 66

Отзывы
Зарегистрируйтесь чтобы добавить комментарий.
Обратная связь
Copyleft ©