↑↓torrent.by
Поиск
Логин: Регистрация
Пароль: Восстановить пароль

Журнал 64 / Journal 64 (2018) HDRip-AVC | HDRezka Studio

Скачать zhurnal-64-journal-2018-hdrip-avc-hdrezka-studio.torrent
U Магнитная ссылка Размер: 755.05 MB Раздают: 415 Качают: 5 Добавлен: 2019-04-03 05:50:59
Журнал 64 / Journal 64 (2018) HDRip-AVC | HDRezka Studio

Название: Журнал 64
Оригинальное название: Journal 64
Год выхода: 2018
Жанр:  Tриллер, криминал, детектив
Режиссер: Кристоффер Боэ
В ролях: Фарес Фарес, Николай Ли Каас, Николас Бро, Андерс Хове, Эллиотт Кроссет Хов, Андерс Юль, Сёрен Пильмарк, Фанни Борнедал, Вибеке Хаструп, Трине Паллесен, Ванда Перделвиц, Джохэнн Луиз Шмидт, Бирте Нойманн

О фильме:
Карл Мерк уже много лет работает в полиции Копенгагена. С недавних пор он расследует преступления вместе со своим помощником Ассадом. Однажды детектив находит сразу три трупа в одной из квартир. Тела были тщательно мумифицированы. Очевидно, убийца знал своё дело и очень скрупулёзно заметал следы совершённого преступления. Карл ещё никогда не становился свидетелем столь странной и ужасающей сцены. Мумифицированные тела были рассажены вокруг обеденного стола на трёх стульях. Детективу предстоит собрать множество улик и свидетельств, которые приведут его в заброшенную женскую клинику, где проводились жуткие эксперименты…

Страна: Дания, Германия
Студия: Det Danske Filminstitut, Deutscher Filmförderfonds, Film i Väst, Filmförderung Hamburg Schleswig-Holstein
Продолжительность: 01:57:54
Перевод: Профессиональный (многоголосый, закадровый) | HDRezka Studio

Файл
Формат: Matroska
Качество: HDRip-AVC
Видео: x.264, ~817 Kбит/с, 750x314, 24.000 кадр/с
Аудио: AAC, 2ch, ~80 Кбит/с - | Русский | - MVO
Субтитры: Русские

***P.S. =>> Журнал 64 (или дело номер 64) четвертая серия популярного сериала Мистериум


[+] M/I
x264 info: frame I:1424  Avg QP:12.38  size: 37405
x264 info: frame P:39485 Avg QP:15.71  size:  9405
x264 info: frame B:128872 Avg QP:18.33  size:  2295
x264 info: consecutive B-frames:  2.2%  2.8%  6.6% 43.1% 12.5% 20.9%  3.8%  6.1%  2.1%

General
Unique ID                   : 263217701744418026360744602018193884354 (0xC605E2A77E23D81E1F374AB18C5C44C2)
Complete name               : Журнал 64.(2018).HDRip-AVC.[-=DoMiNo=-].mkv
Format                      : Matroska
Format version              : Version 4
File size                   : 755 MiB
Duration                    : 1 h 57 min
Overall bit rate            : 895 kb/s
Movie name                  : Журнал 64
Encoded date                : UTC 2019-04-02 12:08:16
Writing application         : mkvmerge v32.0.0 ('Astral Progressions') 64-bit
Writing library             : libebml v1.3.7 + libmatroska v1.5.0
Attachments                 : poster.jpg

Video
ID                          : 1
Format                      : AVC
Format/Info                 : Advanced Video Codec
Format profile              : High@L4.1
Format settings             : CABAC / 16 Ref Frames
Format settings, CABAC      : Yes
Format settings, ReFrames   : 16 frames
Codec ID                    : V_MPEG4/ISO/AVC
Duration                    : 1 h 57 min
Bit rate                    : 817 kb/s
Width                       : 750 pixels
Height                      : 314 pixels
Display aspect ratio        : 2.40:1
Frame rate mode             : Constant
Frame rate                  : 24.000 FPS
Color space                 : YUV
Chroma subsampling          : 4:2:0
Bit depth                   : 8 bits
Scan type                   : Progressive
Bits/(Pixel*Frame)          : 0.145
Stream size                 : 687 MiB (91%)
Title                       : RIP_BY_-=DoMiNo=-
Writing library             : x264 core 157 r2935 545de2f
Encoding settings           : cabac=1 / ref=16 / deblock=1:0:0 / analyse=0x3:0x133 / me=umh / subme=10 / psy=1 / psy_rd=1.00:0.00 / mixed_ref=1 / me_range=32 / chroma_me=1 / trellis=2 / 8x8dct=1 / cqm=0 / deadzone=21,11 / fast_pskip=0 / chroma_qp_offset=-2 / threads=6 / lookahead_threads=1 / sliced_threads=0 / nr=0 / decimate=1 / interlaced=0 / bluray_compat=0 / constrained_intra=0 / bframes=8 / b_pyramid=2 / b_adapt=2 / b_bias=0 / direct=3 / weightb=1 / open_gop=0 / weightp=2 / keyint=250 / keyint_min=24 / scenecut=40 / intra_refresh=0 / rc_lookahead=40 / rc=2pass / mbtree=1 / bitrate=817 / ratetol=1.0 / qcomp=0.70 / qpmin=0 / qpmax=69 / qpstep=4 / cplxblur=20.0 / qblur=0.5 / ip_ratio=1.40 / aq=3:1.00
Language                    : Danish
Default                     : Yes
Forced                      : No

Audio
ID                          : 2
Format                      : AAC LC SBR
Format/Info                 : Advanced Audio Codec Low Complexity with Spectral Band Replication
Commercial name             : HE-AAC
Format settings             : Explicit
Codec ID                    : A_AAC-2
Duration                    : 1 h 57 min
Bit rate                    : 78.7 kb/s
Channel(s)                  : 2 channels
Channel layout              : L R
Sampling rate               : 48.0 kHz
Frame rate                  : 23.438 FPS (2048 SPF)
Compression mode            : Lossy
Stream size                 : 66.3 MiB (9%)
Title                       : MVO_[HDRezka Studio]
Language                    : Russian
Default                     : Yes
Forced                      : No

Text
ID                          : 3
Format                      : UTF-8
Codec ID                    : S_TEXT/UTF8
Codec ID/Info               : UTF-8 Plain Text
Duration                    : 1 h 53 min
Bit rate                    : 76 b/s
Count of elements           : 1000
Stream size                 : 63.7 KiB (0%)
Title                       : RUS
Language                    : Russian
Default                     : No
Forced                      : No

Menu
00:00:00.000                : :Chapter 01
00:09:59.542                : :Chapter 02
00:19:59.583                : :Chapter 03
00:29:59.708                : :Chapter 04
00:39:59.750                : :Chapter 05
00:49:59.583                : :Chapter 06
00:59:59.958                : :Chapter 07
01:09:59.832                : :Chapter 08
01:19:59.583                : :Chapter 09
01:29:59.667                : :Chapter 10
01:39:59.542                : :Chapter 11
01:49:59.625                : :Chapter 12



Скриншоты:
[+] Всего файлов в раздаче - 1:
Журнал 64.(2018).HDRip-AVC.[-=DoMiNo=-].mkv755.05 MB

Похожие раздачи по запросу - журнал:
2020-01-02 U Журнал - Судоку. Чёрный пояс №01 (2020) PDF 37.67 MB ↑ 66 ↓ 4
2019-12-17 U Журнал | Садовод и огородник. Спецвыпуск №4. Перцы: секреты высокого урожая (2019) PDF 16.29 MB ↑ 261 ↓ 6
2018-02-26 U Журнал «Если» [001-241] (1991-2015) FB2 496.00 MB ↑ 869 ↓ 62
2017-12-10 U Журнал «М-Хобби» [12 номеров] (2017) PDF 197.40 MB ↑ 1696 ↓ 93

Отзывы
Зарегистрируйтесь чтобы добавить комментарий.
Обратная связь
Copyleft ©