↑↓Torrent.by
Поиск
Логин: Регистрация
Пароль: Восстановить пароль
Загрузка...

Хроники хищных городов / Mortal Engines (2018) BDRip 1080p от Ash61 | 3D-Video | halfOU | iTunes

Скачать hroniki-hischnyh-gorodov-mortal-engines-2018-bdrip-1080p-ot-ash61-3d-video-halfou-itunes.torrent
U Магнитная ссылка Размер: 9.88 GB Раздают: 43 Качают: 25 Добавлен: 2019-04-03 05:51:52
Хроники хищных городов / Mortal Engines (2018) BDRip 1080p от Ash61 | 3D-Video | halfOU | iTunes

Хроники хищных городов
Mortal Engines
«Некоторые шрамы никогда не заживают»


Год выпуска: 2018
Страна: Новая Зеландия, США (Universal Pictures, Media Rights Capital, Scholastic Entertainment, Silvertongue Films, Perfect World Pictures, WingNut Films)
Жанр:  фантастика, фэнтези, боевик, триллер, приключения
Продолжительность: 02:08:21

Перевод: Профессиональный дублированный - iTunes

Режиссер: Кристиан Риверс / Christian Rivers

Роли исполняли (дублировали):

Hester Shaw - Хера Хильмар (Варвара Чабан)
Tom Natsworthy - Роберт Шиэн (Александр Дасевич)
Thaddeus Valentine - Хьюго Уивинг (Владимир Антоник)
Anna Fang - Джихе (Наталья Грачёва)
Bevis Pod - Ронан Рафтери (Александр Скиданов)
Katherine Valentine - Лейла Джордж (Карина Фадеева)
Magnus Crome - Патрик Мэлахайд (Алексей Войтюк)
Shrike - Стивен Лэнг (Владимир Паляница)
Chudleigh Pomeroy - Колин Сэлмон (Сергей Чихачёв)
Vambrace - Марк Митчинсон
Captain Khora - Реге Пейдж (Станислав Тикунов)
Sathya - Меник Гунератне (Юлия Горохова)
Yasmina Rashid - Фрэнки Адамс


Описание: Прошли тысячелетия после того, как мир настиг апокалипсис. Человечество адаптировалось и теперь живет по новым правилам. Гигантские движущиеся мегаполисы рассекают пустоши и поглощают маленькие города ради ресурсов. Том Нэтсуорти из нижнего уровня великого Лондона оказывается в смертельной опасности, когда на его пути появляется скрывающаяся от закона бунтарка Эстер Шоу. Они не должны были встретиться, но им суждено изменить будущее.

Премьера: 5 декабря 2018 (6 декабря 2018)
Бюджет: $100 000 000
Кассовые сборы: $83 181 224


Качество: BDRip (by Ash61)
Контейнер: MKV
Формат 3D: Half OverUnder / Вертикальная анаморфная стереопара
Порядок ракурсов: левый ракурс первый

Видео: AVC / 1920х1080p / 23,976 fps / 10.0 Mbps

Аудио:
#1 - Русский / AC3 / 48 KHz / 5.1 ch / 384 Kbps (Дубляж - iTunes)
#2 - Украинский / AC3 / 48 KHz / 2 ch / 192 Kbps (Дубляж - Line)
#3 - Английский / AC3 / 48 KHz / 5.1 ch / 448 Kbps (Original - BD 3D)

Субтитры (SRT):
Вшитые (softsub):
#1 - Русские Форсированные (включены по умолчанию)
#2 - Русские Полные
#3 - Украинские Форсированные
#4 - English Forced
#5 - English Full
#6 - English SDH

Внешние (UTF-8):
#1 - Русские Форсированные (включены по умолчанию)
#2 - Русские Полные
#3 - Украинские Форсированные



[+] MediaInfo
General
Unique ID                   : 200485784095533535602912073712662500409 (0x96D42852023D7BC4AAFEBE61C2C05439)
Complete name               : J:MortalEngines(2018)3D-halfOU(Ash61)iTunesMortalEngines(2018)3D-halfOU(Ash61)iTunes.mkv
Format                      : Matroska
Format version              : Version 2
File size                   : 9.88 GiB
Duration                    : 2h 8mn
Overall bit rate            : 11.0 Mbps
Movie name                  : Хроники хищных городов / Mortal Engines (2018) in 3D
Encoded date                : UTC 2019-04-02 06:19:14
Writing application         : mkvmerge v5.8.0 ('No Sleep / Pillow') built on Sep  2 2012 15:37:04
Writing library             : libebml v1.2.3 + libmatroska v1.3.0

Video
ID                          : 1
Format                      : AVC
Format/Info                 : Advanced Video Codec
Format profile              : High@L4.1
Format settings, CABAC      : Yes
Format settings, ReFrames   : 4 frames
Codec ID                    : V_MPEG4/ISO/AVC
Duration                    : 2h 8mn
Bit rate                    : 10 000 Kbps
Width                       : 1 920 pixels
Height                      : 1 080 pixels
Display aspect ratio        : 16:9
Frame rate mode             : Constant
Frame rate                  : 23.976 (24000/1001) fps
Color space                 : YUV
Chroma subsampling          : 4:2:0
Bit depth                   : 8 bits
Scan type                   : Progressive
Bits/(Pixel*Frame)          : 0.201
Stream size                 : 8.77 GiB (89%)
Title                       : BDRip by Ash61
Writing library             : x264 core 146 r2538 121396c
Encoding settings           : cabac=1 / ref=4 / deblock=1:-3:-3 / analyse=0x3:0x113 / me=umh / subme=10 / psy=1 / psy_rd=1.00:0.00 / mixed_ref=1 / me_range=32 / chroma_me=1 / trellis=2 / 8x8dct=1 / cqm=0 / deadzone=21,11 / fast_pskip=0 / chroma_qp_offset=-2 / threads=12 / lookahead_threads=3 / sliced_threads=0 / nr=0 / decimate=0 / interlaced=0 / bluray_compat=0 / constrained_intra=0 / bframes=10 / b_pyramid=2 / b_adapt=2 / b_bias=0 / direct=3 / weightb=1 / open_gop=0 / weightp=2 / keyint=250 / keyint_min=23 / scenecut=40 / intra_refresh=0 / rc_lookahead=60 / rc=2pass / mbtree=0 / bitrate=10000 / ratetol=1.0 / qcomp=0.70 / qpmin=0 / qpmax=69 / qpstep=4 / cplxblur=20.0 / qblur=0.5 / vbv_maxrate=40000 / vbv_bufsize=30000 / nal_hrd=none / filler=0 / frame-packing=4 / ip_ratio=1.40 / pb_ratio=1.30 / aq=1:0.70
Language                    : English
Default                     : Yes
Forced                      : No

Audio #1
ID                          : 2
Format                      : AC-3
Format/Info                 : Audio Coding 3
Mode extension              : CM (complete main)
Format settings, Endianness : Big
Codec ID                    : A_AC3
Duration                    : 2h 8mn
Bit rate mode               : Constant
Bit rate                    : 384 Kbps
Channel(s)                  : 6 channels
Channel positions           : Front: L C R, Side: L R, LFE
Sampling rate               : 48.0 KHz
Frame rate                  : 31.250 fps (1536 spf)
Compression mode            : Lossy
Stream size                 : 353 MiB (3%)
Title                       : Дубляж (iTunes)
Language                    : Russian
Default                     : Yes
Forced                      : No

Audio #2
ID                          : 3
Format                      : AC-3
Format/Info                 : Audio Coding 3
Mode extension              : CM (complete main)
Format settings, Endianness : Big
Codec ID                    : A_AC3
Duration                    : 2h 8mn
Bit rate mode               : Constant
Bit rate                    : 192 Kbps
Channel(s)                  : 2 channels
Channel positions           : Front: L R
Sampling rate               : 48.0 KHz
Frame rate                  : 31.250 fps (1536 spf)
Compression mode            : Lossy
Stream size                 : 176 MiB (2%)
Title                       : Дубляж (Line)
Language                    : Ukrainian
Default                     : No
Forced                      : No

Audio #3
ID                          : 4
Format                      : AC-3
Format/Info                 : Audio Coding 3
Mode extension              : CM (complete main)
Format settings, Endianness : Big
Codec ID                    : A_AC3
Duration                    : 2h 8mn
Bit rate mode               : Constant
Bit rate                    : 448 Kbps
Channel(s)                  : 6 channels
Channel positions           : Front: L C R, Side: L R, LFE
Sampling rate               : 48.0 KHz
Frame rate                  : 31.250 fps (1536 spf)
Compression mode            : Lossy
Stream size                 : 411 MiB (4%)
Title                       : Original
Language                    : English
Default                     : No
Forced                      : No

Text #1
ID                          : 5
Format                      : UTF-8
Codec ID                    : S_TEXT/UTF8
Codec ID/Info               : UTF-8 Plain Text
Title                       : Форсированные
Language                    : Russian
Default                     : Yes
Forced                      : No

Text #2
ID                          : 6
Format                      : UTF-8
Codec ID                    : S_TEXT/UTF8
Codec ID/Info               : UTF-8 Plain Text
Title                       : Полные
Language                    : Russian
Default                     : No
Forced                      : No

Text #3
ID                          : 7
Format                      : UTF-8
Codec ID                    : S_TEXT/UTF8
Codec ID/Info               : UTF-8 Plain Text
Title                       : Форсированные
Language                    : Ukrainian
Default                     : No
Forced                      : No

Text #4
ID                          : 8
Format                      : UTF-8
Codec ID                    : S_TEXT/UTF8
Codec ID/Info               : UTF-8 Plain Text
Title                       : Forced
Language                    : English
Default                     : No
Forced                      : No

Text #5
ID                          : 9
Format                      : UTF-8
Codec ID                    : S_TEXT/UTF8
Codec ID/Info               : UTF-8 Plain Text
Title                       : Full
Language                    : English
Default                     : No
Forced                      : No

Text #6
ID                          : 10
Format                      : UTF-8
Codec ID                    : S_TEXT/UTF8
Codec ID/Info               : UTF-8 Plain Text
Title                       : SDH (BD 3D)
Language                    : English
Default                     : No
Forced                      : No

Menu
00:00:00.000                : :1
00:09:24.397                : :2
00:16:13.304                : :3
00:24:20.625                : :4
00:31:24.590                : :5
00:35:53.067                : :6
00:41:27.818                : :7
00:44:53.815                : :8
00:50:16.804                : :9
00:54:21.173                : :10
01:00:51.396                : :11
01:07:12.068                : :12
01:11:12.850                : :13
01:17:37.735                : :14
01:25:25.619                : :15
01:33:30.395                : :16
01:39:28.545                : :17
01:47:58.262                : :18
01:52:11.557                : :19
01:58:33.523                : :20



[+] Для оценки 3Д - Анимированные скрины















[+] Всего файлов в раздаче - 4:
MortalEngines(2018)3D-halfOU(Ash61)iTunes.mkv9.88 GB
MortalEngines(2018)3D-halfOU(Ash61)iTunes.srt1.40 kB
MortalEngines(2018)Субтитры.Русские.Полные.srt116.08 kB
MortalEngines(2018)Субтитры.Украинские.Форсированные.srt1.31 kB

Показать еще раздачи по запросу хроники:
2019-09-13 U Игорь Вереснев - Хроники Максима Волгина (2019) [FB2] 2.09 MB ↑ 2 ↓ 0
2019-08-31 U Клайв Стейплз Льюис - Хроники Нарнии 1. Племянник чародея (2019) MP3 80.49 MB ↑ 3 ↓ 0
2019-08-19 U Хроники видика: легенды эпохи VHS (2018) WEBRip 720p от HDReactor 4.37 GB ↑ 49 ↓ 20
2019-08-12 U Хроники видика: легенды эпохи VHS (2018) WEB-DLRip от ExKinoRay 2.49 GB ↑ 116 ↓ 49
2019-06-22 U Андрэ Нортон - Война во времени. Вольные торговцы. Лоренс ван Норрис. Хроники полукровок [cборник] (2019) FB2 14.16 MB ↑ 102 ↓ 6
2019-06-12 U Раймонд Фэйст - Хроники Мидкемии [сборник] (2019) FB2 31.97 MB ↑ 90 ↓ 7
2019-05-26 U Ник Перумов - Хроники Хьерварда 1. Гибель богов [Часть 1] (2019) MP3 224.98 MB ↑ 65 ↓ 4

Отзывы
Зарегистрируйтесь чтобы добавить комментарий.
Обратная связь
Copyleft ©