↑↓Torrent.by
Поиск
Логин: Регистрация
Пароль: Восстановить пароль
Загрузка...

Т-34 (2018) BDRip 720p от k.e.n & MegaPeer | Лицензия

Скачать t-34-2018-bdrip-720p-ot-k-e-n-megapeer-licenziya.torrent
U Магнитная ссылка Размер: 4.37 GB Раздают: 97 Качают: 15 Добавлен: 2019-04-03 05:52:51
Т-34 (2018) BDRip 720p от k.e.n & MegaPeer | Лицензия

Информация о фильме
Название: Т-34
Год выпуска: 2018
Жанр:  Драма, военный, приключения, ВОВ
Режиссер: Алексей Сидоров
В ролях: Александр Петров (II), Виктор Добронравов, Ирина Старшенбаум, Винценц Кифер, Петр Скворцов, Семён Трескунов, Артём Быстров, Антон Богданов, Василий Уриевский, Василий Буткевич

О фильме:
Во времена величайших испытаний человечества, когда от каждого действия зависят жизни любимых, два заклятых врага начнут свое противостояние. Оказавшись в плену, вчерашний курсант Ивушкин планирует дерзкий побег. Он собирает свой экипаж и на легендарной «тридцатьчетверке» бросает вызов немецким танковым асам во главе с Ягером. Ради своей любви и Родины он готов идти до конца.

 
Страна: Россия
Студия: Марс Медиа, Амедиа Продакшн
Продолжительность: 02:19:08
Язык: Русский | Лицензия BD RUS

Файл
Формат: MKV
Качество: BDRip 720p
Видео: AVC, 1280x536, 24 fps, 4049 Kbps
Аудио: AC3, 48 KHz, 6 ch, 448 Kbps (Russian)
Субтитры: Russian, Englishт

Релиз:   &


[+] x264
x264 [info]: frame I:1717  Avg QP:13.83  size:115076  PSNR Mean Y:49.14 U:52.03 V:51.62 Avg:49.84 Global:49.14
x264 [info]: frame P:47239 Avg QP:16.86  size: 40501  PSNR Mean Y:46.86 U:50.85 V:50.28 Avg:47.74 Global:46.77
x264 [info]: frame B:151411 Avg QP:18.71  size: 13951  PSNR Mean Y:46.22 U:50.54 V:49.77 Avg:47.12 Global:46.17



[+] MI
Полное имя                               : D:ФИЛЬМЫT-34. 2018 (А.Петров, В.Добронравов).mkv
Формат                                   : Matroska
Версия формата                           : Version 2
Размер файла                             : 4,37 Гбайт
Продолжительность                        : 2 ч. 19 м.
Общий поток                              : 4497 Кбит/сек
Дата кодирования                         : UTC 2019-04-02 05:24:45
Программа кодирования                    : mkvmerge v5.3.0 ('I could have danced') built on Feb  9 2012 10:38:07
Библиотека кодирования                   : libebml v1.2.3 + libmatroska v1.3.0
Обложка                                  : Yes
Attachments                              : cover (3).jpg

Видео
Идентификатор                            : 1
Формат                                   : AVC
Формат/Информация                        : Advanced Video Codec
Профиль формата                          : High@L4.1
Параметр CABAC формата                   : Да
Параметр ReFrames формата                : 12 кадров
Идентификатор кодека                     : V_MPEG4/ISO/AVC
Продолжительность                        : 2 ч. 19 м.
Битрейт                                  : 4049 Кбит/сек
Ширина                                   : 1280 пикселей
Высота                                   : 536 пикселей
Соотношение сторон                       : 2,40:1
Режим частоты кадров                     : Постоянный
Частота кадров                           : 24,000 кадра/сек
Цветовое пространство                    : YUV
Субдискретизация насыщенности            : 4:2:0
Битовая глубина                          : 8 бит
Тип развёртки                            : Прогрессивная
Бит/(Пиксели*Кадры)                      : 0.246
Размер потока                            : 3,85 Гбайт (88%)
Библиотека кодирования                   : x264 core 146 r2538 121396c
Настройки программы                      : cabac=1 / ref=12 / deblock=1:-3:-3 / analyse=0x3:0x133 / me=umh / subme=11 / psy=1 / psy_rd=1.05:0.10 / mixed_ref=1 / me_range=32 / chroma_me=1 / trellis=2 / 8x8dct=1 / cqm=0 / deadzone=21,11 / fast_pskip=0 / chroma_qp_offset=-3 / threads=12 / lookahead_threads=3 / sliced_threads=0 / nr=0 / decimate=0 / interlaced=0 / bluray_compat=0 / constrained_intra=0 / bframes=12 / b_pyramid=2 / b_adapt=2 / b_bias=0 / direct=3 / weightb=1 / open_gop=0 / weightp=2 / keyint=240 / keyint_min=24 / scenecut=40 / intra_refresh=0 / rc_lookahead=40 / rc=2pass / mbtree=0 / bitrate=4049 / ratetol=1.0 / qcomp=0.60 / qpmin=0 / qpmax=69 / qpstep=4 / cplxblur=20.0 / qblur=0.5 / vbv_maxrate=50000 / vbv_bufsize=62500 / nal_hrd=none / filler=0 / ip_ratio=1.40 / pb_ratio=1.30 / aq=3:0.70
Язык                                     : English
Default                                  : Да
Forced                                   : Нет
Цветовой диапазон                        : Limited
Основные цвета                           : BT.709
Характеристики трансфера                 : BT.709
Коэффициенты матрицы                     : BT.709

Аудио
Идентификатор                            : 2
Формат                                   : AC-3
Формат/Информация                        : Audio Coding 3
Расширение режима                        : CM (complete main)
Параметр Endianness формата              : Big
Идентификатор кодека                     : A_AC3
Продолжительность                        : 2 ч. 19 м.
Вид битрейта                             : Постоянный
Битрейт                                  : 448 Кбит/сек
Каналы                                   : 6 каналов
Расположение каналов                     : Front: L C R, Side: L R, LFE
Частота                                  : 48,0 КГц
Частота кадров                           : 31,250 кадров/сек (1536 spf)
Битовая глубина                          : 16 бит
Метод сжатия                             : С потерями
Размер потока                            : 446 Мбайт (10%)
Заголовок                                : Лицензия
Язык                                     : Russian
Default                                  : Да
Forced                                   : Нет

Текст #1
Идентификатор                            : 3
Формат                                   : UTF-8
Идентификатор кодека                     : S_TEXT/UTF8
Идентификатор кодека/Информация          : UTF-8 Plain Text
Заголовок                                : Full
Язык                                     : Russian
Default                                  : Нет
Forced                                   : Нет

Текст #2
Идентификатор                            : 4
Формат                                   : UTF-8
Идентификатор кодека                     : S_TEXT/UTF8
Идентификатор кодека/Информация          : UTF-8 Plain Text
Язык                                     : English
Default                                  : Нет
Forced                                   : Нет

Меню
00:00:00.000                             : ru:Chapter 01
00:01:17.875                             : ru:Chapter 02
00:12:31.250                             : ru:Chapter 03
00:24:54.041                             : ru:Chapter 04
00:35:06.916                             : ru:Chapter 05
00:49:36.291                             : ru:Chapter 06
01:03:21.041                             : ru:Chapter 07
01:17:58.583                             : ru:Chapter 08
01:30:55.458                             : ru:Chapter 09
01:46:42.666                             : ru:Chapter 10
02:03:33.916                             : ru:Chapter 11



Скриншоты:
[+] Всего файлов в раздаче - 1:
T-34. 2018 (А.Петров, В.Добронравов).mkv4.37 GB

Показать еще раздачи по запросу bdrip:
Вчера U Рождённый стать королем / The Kid Who Would Be King (2019) BDRip 1080p от селезень | iTunes 10.11 GB ↑ 530 ↓ 320
Вчера U Рождённый стать королем / The Kid Who Would Be King (2019) BDRip 720p от селезень | iTunes 5.47 GB ↑ 757 ↓ 338
Вчера U Как приручить дракона 3 / How to Train Your Dragon: The Hidden World (2019) BDRip-AVC от OlLanDGroup | D, P | iTunes 2.10 GB ↑ 50 ↓ 8
Вчера U Мы умираем молодыми / We Die Young (2019) BDRip 1080p от ExKinoRay | HDRezka Studio 7.95 GB ↑ 55 ↓ 3
Вчера U Как приручить дракона 3 / How to Train Your Dragon: The Hidden World (2019) BDRip-AVC от Dalemake | iTunes 1.45 GB ↑ 66 ↓ 10
Вчера U Как приручить дракона 3 / How to Train Your Dragon: The Hidden World (2019) BDRip 1080p от Ash61 | 3D-Video | halfOU | iTunes 8.74 GB ↑ 63 ↓ 18
Вчера U Власть / Vice (2018) BDRip от Dalemake | iTunes 1.46 GB ↑ 330 ↓ 58

Отзывы
Зарегистрируйтесь чтобы добавить комментарий.
Обратная связь
Copyleft ©