↑↓Torrent.by
Поиск
Логин: Регистрация
Пароль: Восстановить пароль
Загрузка...

Время возмездия / Destroyer (2018) WEB-DL 1080p | HDRezka Studio

Скачать vremya-vozmezdiya-destroyer-2018-web-dl-1080p-hdrezka-studio.torrent
U Магнитная ссылка Размер: 4.38 GB Раздают: 462 Качают: 300 Добавлен: 2019-04-03 18:15:38
Время возмездия / Destroyer (2018) WEB-DL 1080p | HDRezka Studio

Время возмездия / Destroyer

Страна: США
Производство: Automatik Entertainment, 30West
Год выпуска: 2018
Жанр:  боевик, триллер, драма, криминал, детектив
Продолжительность: 02:00:32

Режиссер: Карин Кусама
Авторы сценария: Фил Хэй, Мэтт Манфреди
В ролях: Николь Кидман, Тоби Кеббелл, Татьяна Маслани, Себастиан Стэн, Скут МакНэри, Брэдли Уитфорд, Тоби Хасс, Джеймс Джордан

Описание: Внедренная в преступную банду Лос-Анджелеса хрупкая Эрин невольно влюбляется в своего напарника. Однако её жизнь меняется навсегда, когда тщательно подготовленная спецоперация неожиданно идет не по плану. Спустя несколько лет прошлое вновь настигнет девушку, но уже сильную и безжалостную. Грядет время возмездия…

Перевод: Профессиональный (многоголосый, закадровый) | HDRezka Studio
Субтитры: нет

Качество: WEB-DL 1080p
Формат: MKV
Видео кодек: AVC
Аудио кодек: АС3
Видео: 1916x792 (2.40:1), 23.976 fps, MPEG-4 AVC ~4 629 kbps avg
Аудио №1: 48.0 kHz, AC3 Dolby Digital, 2/0 (L,R) ch, ~192 kbps | RUS / MVO
Аудио №2: 48.0 kHz, AC3 Dolby Digital, 3/2 (L,C,R,l,r) + LFE ch, ~384 kbps | ENG

Дата премьеры (мир): 31 августа 2018
Дата премьеры (РФ): 14 марта 2019, «Вольга»


[+] Media Info
General
Полное имя : Время возмездия 2018.mkv
Формат : Matroska
Версия формата : Version 4 / Version 2
Размер файла : 4,38 Гбайт
Продолжительность : 2 ч. 0 м.
Общий поток : 5201 Кбит/сек
Дата кодирования : UTC 2019-04-03 05:48:47
Программа кодирования : mkvmerge v8.3.0 ('Over the Horizon') 64bit
Библиотека кодирования : libebml v1.3.1 + libmatroska v1.4.2

Видео
Идентификатор : 1
Формат : AVC
Формат/Информация : Advanced Video Codec
Профиль формата : High@L4
Настройки формата : CABAC / 5 Ref Frames
Параметр CABAC формата : Да
Параметр RefFrames формата : 5 кадров
Идентификатор кодека : V_MPEG4/ISO/AVC
Продолжительность : 2 ч. 0 м.
Битрейт : 4629 Кбит/сек
Ширина : 1916 пикселей
Высота : 792 пикселя
Соотношение сторон : 2,40:1
Режим частоты кадров : Постоянный
Частота кадров : 23,976 кадра/сек
Цветовое пространство : YUV
Субдискретизация насыщенности : 4:2:0
Битовая глубина : 8 бит
Тип развёртки : Прогрессивная
Бит/(Пиксели*Кадры) : 0.127
Размер потока : 3,89 Гбайт (89%)
Язык : English
Default : Да
Forced : Нет
Цветовой диапазон : Limited
Основные цвета : BT.709
Характеристики трансфера : BT.709
Коэффициенты матрицы : BT.709

Аудио #1
Идентификатор : 2
Формат : AC-3
Формат/Информация : Audio Coding 3
Идентификатор кодека : A_AC3
Продолжительность : 2 ч. 0 м.
Вид битрейта : Постоянный
Битрейт : 192 Кбит/сек
Каналы : 2 канала
Расположение каналов : Front: L R
Частота : 48,0 КГц
Частота кадров : 31,250 кадров/сек (1536 SPF)
Битовая глубина : 16 бит
Метод сжатия : С потерями
Размер потока : 166 Мбайт (4%)
Язык : Russian
Default : Да
Forced : Нет

Аудио #2
Идентификатор : 3
Формат : AC-3
Формат/Информация : Audio Coding 3
Идентификатор кодека : A_AC3
Продолжительность : 2 ч. 0 м.
Вид битрейта : Постоянный
Битрейт : 384 Кбит/сек
Каналы : 6 каналов
Расположение каналов : Front: L C R, Side: L R, LFE
Частота : 48,0 КГц
Частота кадров : 31,250 кадров/сек (1536 SPF)
Битовая глубина : 16 бит
Метод сжатия : С потерями
Размер потока : 331 Мбайт (7%)
Язык : English
Default : Нет
Forced : Нет



Скриншоты:
[+] Всего файлов в раздаче - 1:
Время возмездия 2018.mkv4.38 GB

Показать еще раздачи по запросу время:
2019-05-17 U Оружие, время, мотив / L'arma, l'ora, il movente (1972) DVDRip | A 1.47 GB ↑ 26 ↓ 13
2019-05-04 U Время возмездия / Destroyer (2018) BDRip от Twister & ExKinoRay | iTunes 1.46 GB ↑ 42 ↓ 11
2019-05-01 U Время возмездия / Destroyer (2018) BDRemux 1080p от селезень | D, P | iTunes 35.25 GB ↑ 40 ↓ 20
2019-05-01 U Время возмездия / Destroyer (2018) BDRip от MegaPeer | iTunes 2.13 GB ↑ 70 ↓ 27
2019-05-01 U Время возмездия / Destroyer (2018) BDRip 1080p | D, P | iTunes 18.22 GB ↑ 85 ↓ 35
2019-04-30 U Время возмездия / Destroyer (2018) BDRip-AVC от ExKinoRay | iTunes 3.15 GB ↑ 101 ↓ 67
2019-04-30 U Время возмездия / Destroyer (2018) BDRip 720p | D, P | iTunes 9.77 GB ↑ 104 ↓ 114

Отзывы
Зарегистрируйтесь чтобы добавить комментарий.
Обратная связь
Copyleft ©