↑↓Torrent.by
Поиск
Логин: Регистрация
Пароль: Восстановить пароль
Загрузка...

Во время грозы / Durante la tormenta (2018) WEB-DL 1080p | L

Скачать vo-vremya-grozy-durante-la-tormenta-2018-web-dl-1080p-l.torrent
U Магнитная ссылка Размер: 4.93 GB Раздают: 200 Качают: 143 Добавлен: 2019-04-03 18:15:58
Во время грозы / Durante la tormenta (2018) WEB-DL 1080p | L

Название: Во время грозы
Оригинальное название: Durante la tormenta
Год выхода: 2018
Жанр: триллер, драма, фэнтези, детектив
Режиссер: Ориол Паоло
В ролях: Адриана Угарте, Чино Дарин, Хавьер Гутьеррес, Альваро Морте, Нора Навас, Микель Фернандес, Клара Сегура, Мима Риера, Айна Клотет, Альберт Перес

О фильме: Счастливая женщина Вера с мужем и маленькой дочкой переезжает в новый дом. А там во время сильной грозы происходит смещение временных пластов, в результате чего женщина пытается спасти от гибели мальчика, жившего тут 25 лет назад. Но этот акт доброй воли приводит к тому, что Вера оказывается в изменённом настоящем, в котором супруг её не знает, и её собственная дочь не родилась.

Страна: Испания
Студия: Atresmedia Cine, Colosé Producciones, Mirage Studio, Think Studio
Продолжительность: 02:09:14
Перевод: Любительский многоголосый [AlphaProject]

Файл
Кодек: MPEG-4 AVC
Качество: WEB-DL 1080p
Видео: 1920x800, 4499 kb/s, 24.000 fps
Звук:
1) 192 kb/s, 2 ch, 48000 kHz, AC3 [RUS] | AlphaProject
2) 384 kb/s, 6 ch, 48000 kHz, AC3 [SPA] | Испанский оригинал
3) 384 kb/s, 6 ch, 48000 kHz, AC3 [ENG] | Английский оригинал
Субтитры: Русские, английские, испанские


[+] MI

Формат                                   : Matroska
Версия формата                           : Version 4 / Version 2
Размер файла                             : 4,93 Гбайт
Продолжительность                        : 2 ч. 9 м.
Общий поток                              : 5462 Кбит/сек
Дата кодирования                         : UTC 2019-04-02 16:23:16
Программа кодирования                    : mkvmerge v32.0.0 ('Astral Progressions') 64-bit
Библиотека кодирования                   : libebml v1.3.7 + libmatroska v1.5.0

Видео
Идентификатор                            : 1
Формат                                   : AVC
Формат/Информация                        : Advanced Video Codec
Профиль формата                          : High@L4.1
Настройки формата                        : CABAC / 4 Ref Frames
Параметр CABAC формата                   : Да
Параметр RefFrames формата               : 4 кадра
Идентификатор кодека                     : V_MPEG4/ISO/AVC
Продолжительность                        : 2 ч. 9 м.
Битрейт                                  : 4499 Кбит/сек
Ширина                                   : 1920 пикселей
Высота                                   : 800 пикселей
Соотношение сторон                       : 2,40:1
Режим частоты кадров                     : Постоянный
Частота кадров                           : 24,000 кадра/сек
Цветовое пространство                    : YUV
Субдискретизация насыщенности            : 4:2:0
Битовая глубина                          : 8 бит
Тип развёртки                            : Прогрессивная
Бит/(Пиксели*Кадры)                      : 0.122
Размер потока                            : 4,06 Гбайт (82%)
Библиотека кодирования                   : x264 core 120 r2164 da19765
Настройки программы                      : cabac=1 / ref=3 / deblock=1:-3:-3 / analyse=0x3:0x133 / me=hex / subme=7 / psy=1 / psy_rd=1.01:0.00 / mixed_ref=1 / me_range=16 / chroma_me=1 / trellis=1 / 8x8dct=1 / cqm=0 / deadzone=21,11 / fast_pskip=0 / chroma_qp_offset=-2 / threads=6 / sliced_threads=0 / nr=0 / decimate=1 / interlaced=0 / bluray_compat=0 / constrained_intra=0 / bframes=3 / b_pyramid=2 / b_adapt=2 / b_bias=0 / direct=3 / weightb=1 / open_gop=0 / weightp=2 / keyint=240 / keyint_min=24 / scenecut=40 / intra_refresh=0 / rc_lookahead=50 / rc=2pass / mbtree=1 / bitrate=4499 / ratetol=1.0 / qcomp=0.60 / qpmin=0 / qpmax=69 / qpstep=4 / cplxblur=20.0 / qblur=0.5 / ip_ratio=1.40 / aq=1:0.70
Язык                                     : Spanish
Default                                  : Да
Forced                                   : Нет

Аудио #1
Идентификатор                            : 2
Формат                                   : AC-3
Формат/Информация                        : Audio Coding 3
Идентификатор кодека                     : A_AC3
Продолжительность                        : 2 ч. 9 м.
Вид битрейта                             : Постоянный
Битрейт                                  : 192 Кбит/сек
Каналы                                   : 2 канала
Расположение каналов                     : Front: L R
Частота                                  : 48,0 КГц
Частота кадров                           : 31,250 кадров/сек (1536 SPF)
Битовая глубина                          : 16 бит
Метод сжатия                             : С потерями
Размер потока                            : 177 Мбайт (4%)
Заголовок                                : MVO-AlphaProject
Язык                                     : Russian
Default                                  : Да
Forced                                   : Нет

Аудио #2
Идентификатор                            : 3
Формат                                   : AC-3
Формат/Информация                        : Audio Coding 3
Идентификатор кодека                     : A_AC3
Продолжительность                        : 2 ч. 9 м.
Вид битрейта                             : Постоянный
Битрейт                                  : 384 Кбит/сек
Каналы                                   : 6 каналов
Расположение каналов                     : Front: L C R, Side: L R, LFE
Частота                                  : 48,0 КГц
Частота кадров                           : 31,250 кадров/сек (1536 SPF)
Битовая глубина                          : 16 бит
Метод сжатия                             : С потерями
Размер потока                            : 355 Мбайт (7%)
Язык                                     : Spanish
Default                                  : Нет
Forced                                   : Нет

Аудио #3
Идентификатор                            : 4
Формат                                   : AC-3
Формат/Информация                        : Audio Coding 3
Идентификатор кодека                     : A_AC3
Продолжительность                        : 2 ч. 9 м.
Вид битрейта                             : Постоянный
Битрейт                                  : 384 Кбит/сек
Каналы                                   : 6 каналов
Расположение каналов                     : Front: L C R, Side: L R, LFE
Частота                                  : 48,0 КГц
Частота кадров                           : 31,250 кадров/сек (1536 SPF)
Битовая глубина                          : 16 бит
Метод сжатия                             : С потерями
Размер потока                            : 355 Мбайт (7%)
Язык                                     : English
Default                                  : Нет
Forced                                   : Нет

Текст #1
Идентификатор                            : 5
Формат                                   : UTF-8
Идентификатор кодека                     : S_TEXT/UTF8
Идентификатор кодека/Информация          : UTF-8 Plain Text
Продолжительность                        : 2 ч. 8 м.
Битрейт                                  : 78 бит/сек
ElementCount                             : 1393
Размер потока                            : 74,1 Кбайт (0%)
Язык                                     : Russian
Default                                  : Нет
Forced                                   : Нет

Текст #2
Идентификатор                            : 6
Формат                                   : UTF-8
Идентификатор кодека                     : S_TEXT/UTF8
Идентификатор кодека/Информация          : UTF-8 Plain Text
Продолжительность                        : 2 ч. 1 м.
Битрейт                                  : 46 бит/сек
ElementCount                             : 1391
Размер потока                            : 41,3 Кбайт (0%)
Язык                                     : English
Default                                  : Нет
Forced                                   : Нет

Текст #3
Идентификатор                            : 7
Формат                                   : UTF-8
Идентификатор кодека                     : S_TEXT/UTF8
Идентификатор кодека/Информация          : UTF-8 Plain Text
Продолжительность                        : 2 ч. 0 м.
Битрейт                                  : 55 бит/сек
ElementCount                             : 1275
Размер потока                            : 49,0 Кбайт (0%)
Язык                                     : Spanish
Default                                  : Нет
Forced                                   : Нет



Скриншоты:
[+] Всего файлов в раздаче - 1:
Durante.La.Tormenta.2018.1080p.WEBRip.MVO.NNMClub.mkv4.93 GB

Показать еще раздачи по запросу время:
Вчера U Исчезнувшее время / Vanishing Time: A Boy Who Returned / Garyeojin sigan (2016) BDRip 720p | L1 4.70 GB ↑ 67 ↓ 16
2019-06-17 U Время монстров / The Head Hunter (2018) BDRip от Twister & ExKinoRay | iTunes 1.43 GB ↑ 69 ↓ 20
2019-06-15 U Время монстров / The Head Hunter (2018) BDRip-AVC от ExKinoRay | HDRezka Studio 1.32 GB ↑ 41 ↓ 16
2019-06-14 U Время монстров / The Head Hunter (2018) BDRip 720p от селезень | iTunes 4.06 GB ↑ 112 ↓ 29
2019-06-14 U Время монстров / The Head Hunter (2018) BDRip 1080p от селезень | iTunes 7.40 GB ↑ 145 ↓ 44
2019-06-14 U Время монстров / The Head Hunter (2018) BDRip от MegaPeer | iTunes 1.09 GB ↑ 221 ↓ 30
2019-05-17 U Оружие, время, мотив / L'arma, l'ora, il movente (1972) DVDRip | A 1.47 GB ↑ 26 ↓ 16

Отзывы
Зарегистрируйтесь чтобы добавить комментарий.
Обратная связь
Copyleft ©