↑↓Torrent.by
Поиск
Логин: Регистрация
Пароль: Восстановить пароль
Загрузка...

Т-34 (2018) BDRip-HEVC 1080p от HANNIBAL | Лицензия

Скачать t-34-2018-bdrip-hevc-1080p-ot-hannibal-licenziya.torrent
U Магнитная ссылка Размер: 8.27 GB Раздают: 37 Качают: 14 Добавлен: 2019-04-04 08:16:59
Т-34 (2018) BDRip-HEVC 1080p от HANNIBAL | Лицензия

Название: Т-34
Год выхода: 2018
Жанр: Драма, военный, приключения
Режиссер: Алексей Сидоров
В ролях: Александр Петров, Виктор Добронравов, Ирина Старшенбаум, Винценц Кифер, Петр Скворцов, Семен Трескунов, Антон Богданов, Василий Уриевский, Василий Буткевич, Ярослав Штефан и др.

О фильме:
Во времена величайших испытаний человечества, когда от каждого действия зависят жизни любимых, два заклятых врага начнут свое противостояние. Оказавшись в плену, вчерашний курсант Ивушкин планирует дерзкий побег. Он собирает свой экипаж и на легендарной «тридцатьчетверке» бросает вызов немецким танковым асам во главе с Ягером. Ради своей любви и Родины он готов идти до конца.

Страна: Россия
Продолжительность: 02:19:08
Перевод: Не требуется | Лицензия

Файл
Качество: BDRip-HEVC 1080p
Видео: HEVC/x.265, 1920x804, ~8062 Kbps
Звук: AC3, 6 ch, 448 Kbps  
Субтитры: Русские

Релиз:
[+] Mediainfo

General
Unique ID                   : 73686271566735025526669661135916520738 (0x376F75AE3F789FEBC7E88AF5EA485522)
Complete name               : E:Т-34 (2018) BDRip 1080p [HEVC] 10bit.mkv
Format                      : Matroska
Format version              : Version 4
File size                   : 8.27 GiB
Duration                    : 2 h 19 min
Overall bit rate            : 8 512 kb/s
Movie name                  : Т-34
Encoded date                : UTC 2019-04-02 15:42:40
Writing application         : mkvmerge v25.0.0 ('Prog Noir') 64-bit
Writing library             : libebml v1.3.6 + libmatroska v1.4.9 / Lavf57.71.100
Attachments                 : poster.jpg
ACTORS                      : Александр Петров, Виктор Добронравов,
COUNTRY                     : Россия
DATE                        : 2018
DIRECTOR                    : Алексей Сидоров
ENCODING_INFO               : MATROSKA,WEBM > MKV / H264 > X265 CRF 18.0 Пользовательский 2
GENRE                       : драма, военный, приключения
HD_VIDEO                    : 1
Language                    : und
MEDIA_TYPE                  : 9

Video
ID                          : 1
Format                      : HEVC
Format/Info                 : High Efficiency Video Coding
Format profile              : Main 10@L4.1@High
Codec ID                    : V_MPEGH/ISO/HEVC
Duration                    : 2 h 19 min
Bit rate                    : 8 062 kb/s
Width                       : 1 920 pixels
Height                      : 804 pixels
Display aspect ratio        : 2.40:1
Frame rate mode             : Constant
Frame rate                  : 24.000 FPS
Color space                 : YUV
Chroma subsampling          : 4:2:0
Bit depth                   : 10 bits
Bits/(Pixel*Frame)          : 0.218
Stream size                 : 7.84 GiB (95%)
Writing library             : x265 2.9+9-f74003e88622:[Windows][GCC 8.2.0][64 bit] 10bit
Encoding settings           : cpuid=1111039 / frame-threads=13 / numa-pools=12 / wpp / no-pmode / no-pme / no-psnr / no-ssim / log-level=3 / input-csp=1 / input-res=1920x804 / interlace=0 / total-frames=0 / level-idc=41 / high-tier=1 / uhd-bd=0 / ref=5 / allow-non-conformance / no-repeat-headers / annexb / no-aud / no-hrd / info / hash=0 / no-temporal-layers / open-gop / min-keyint=24 / keyint=240 / gop-lookahead=0 / bframes=9 / b-adapt=2 / b-pyramid / bframe-bias=0 / rc-lookahead=40 / lookahead-slices=4 / scenecut=40 / radl=0 / no-intra-refresh / ctu=64 / min-cu-size=8 / rect / no-amp / max-tu-size=32 / tu-inter-depth=3 / tu-intra-depth=3 / limit-tu=0 / rdoq-level=2 / dynamic-rd=0.00 / no-ssim-rd / signhide / no-tskip / nr-intra=0 / nr-inter=0 / no-constrained-intra / no-strong-intra-smoothing / max-merge=3 / limit-refs=3 / no-limit-modes / me=3 / subme=7 / merange=57 / temporal-mvp / weightp / weightb / no-analyze-src-pics / deblock=-3:-3 / no-sao / no-sao-non-deblock / rd=6 / no-early-skip / rskip / no-fast-intra / no-tskip-fast / no-cu-lossless / no-b-intra / no-splitrd-skip / rdpenalty=0 / psy-rd=2.00 / psy-rdoq=1.00 / no-rd-refine / no-lossless / cbqpoffs=0 / crqpoffs=0 / rc=crf / crf=18.0 / qcomp=0.70 / qpstep=4 / stats-write=0 / stats-read=0 / vbv-maxrate=50000 / vbv-bufsize=50000 / vbv-init=0.9 / crf-max=0.0 / crf-min=0.0 / ipratio=1.40 / pbratio=1.30 / aq-mode=1 / aq-strength=1.00 / cutree / zone-count=0 / no-strict-cbr / qg-size=32 / no-rc-grain / qpmax=69 / qpmin=0 / no-const-vbv / sar=1 / overscan=0 / videoformat=5 / range=0 / colorprim=1 / transfer=1 / colormatrix=1 / chromaloc=0 / display-window=0 / max-cll=0,0 / min-luma=0 / max-luma=1023 / log2-max-poc-lsb=8 / vui-timing-info / vui-hrd-info / slices=1 / no-opt-qp-pps / no-opt-ref-list-length-pps / no-multi-pass-opt-rps / scenecut-bias=0.05 / no-opt-cu-delta-qp / no-aq-motion / no-hdr / no-hdr-opt / no-dhdr10-opt / no-idr-recovery-sei / analysis-reuse-level=5 / scale-factor=0 / refine-intra=0 / refine-inter=0 / refine-mv=0 / no-limit-sao / ctu-info=0 / no-lowpass-dct / refine-mv-type=0 / copy-pic=1 / max-ausize-factor=1.0 / no-dynamic-refine / no-single-sei
Language                    : Russian
Default                     : Yes
Forced                      : No
Color range                 : Limited
Color primaries             : BT.709
Transfer characteristics    : BT.709
Matrix coefficients         : BT.709

Audio
ID                          : 2
Format                      : AC-3
Format/Info                 : Audio Coding 3
Commercial name             : Dolby Digital
Codec ID                    : A_AC3
Duration                    : 2 h 19 min
Bit rate mode               : Constant
Bit rate                    : 448 kb/s
Channel(s)                  : 6 channels
Channel layout              : L R C LFE Ls Rs
Sampling rate               : 48.0 kHz
Frame rate                  : 31.250 FPS (1536 SPF)
Bit depth                   : 16 bits
Compression mode            : Lossy
Stream size                 : 446 MiB (5%)
Service kind                : Complete Main
Default                     : Yes
Forced                      : No

Text
ID                          : 3
Format                      : UTF-8
Codec ID                    : S_TEXT/UTF8
Codec ID/Info               : UTF-8 Plain Text
Duration                    : 2 h 11 min
Bit rate                    : 48 b/s
Count of elements           : 970
Stream size                 : 46.3 KiB (0%)
Title                       : Full
Language                    : Russian
Default                     : Yes
Forced                      : No

Menu
00:00:00.000                : :Chapter 01
00:01:17.875                : :Chapter 02
00:12:31.250                : :Chapter 03
00:24:54.041                : :Chapter 04
00:35:06.916                : :Chapter 05
00:49:36.291                : :Chapter 06
01:03:21.041                : :Chapter 07
01:17:58.583                : :Chapter 08
01:30:55.458                : :Chapter 09
01:46:42.666                : :Chapter 10
02:03:33.916                : :Chapter 11




Скриншоты:
[+] Всего файлов в раздаче - 1:
Т-34 (2018) BDRip 1080p [HEVC] 10bit.mkv8.27 GB

Показать еще раздачи по запросу bdrip:
Вчера U Простите за беспокойство / Sorry to Bother You (2018) BDRip-AVC от OlLanDGroup | D, P | iTunes 2.22 GB ↑ 46 ↓ 17
Вчера U Простите за беспокойство / Sorry to Bother You (2018) BDRip 1080p от селезень | D, P | iTunes 13.02 GB ↑ 41 ↓ 31
Вчера U Простите за беспокойство / Sorry to Bother You (2018) BDRip от MegaPeer | iTunes 1.41 GB ↑ 47 ↓ 17
Вчера U Как разговаривать с девушками на вечеринках / How to Talk to Girls at Parties (2017) BDRip 1080p от OlLanDGroup | iTunes 12.22 GB ↑ 41 ↓ 10
Вчера U Как разговаривать с девушками на вечеринках / How to Talk to Girls at Parties (2017) BDRip 720p от OlLanDGroup | iTunes 5.30 GB ↑ 42 ↓ 15
Вчера U Как разговаривать с девушками на вечеринках / How to Talk to Girls at Parties (2017) BDRip от MegaPeer | iTunes 1.46 GB ↑ 54 ↓ 13
2019-06-24 U Проект «Гутенберг» / Wu shuang / Project Gutenberg (2018) BDRip 1080p | HiWayGrope 17.60 GB ↑ 64 ↓ 28

Отзывы
Зарегистрируйтесь чтобы добавить комментарий.
Обратная связь
Copyleft ©