↑↓Torrent.by
Поиск
Логин: Регистрация
Пароль: Восстановить пароль
Загрузка...

Закатать в асфальт / Dragged Across Concrete (2018) WEBRip | Sub

Скачать zakatat-v-asfalt-dragged-across-concrete-2018-webrip-sub.torrent
U Магнитная ссылка Размер: 1.46 GB Раздают: 217 Качают: 56 Добавлен: 2019-04-05 17:38:19
Закатать в асфальт / Dragged Across Concrete (2018) WEBRip | Sub

Закатать в асфальт / Dragged Across Concrete

Страна: США  Канада
Производство: Assemble Media, Cinestate, Metrol Technology, Realmbuilders Productions, thefyzz, Unified Pictures
Год выпуска: 2018
Жанр:  боевик, триллер, драма, криминал
Продолжительность: 02:38:30

Режиссер: С. Крэйг Залер
Автор сценария: С. Крэйг Залер
В ролях: Мэл Гибсон, Винс Вон, Тори Киттлз, Дженнифер Карпентер, Лори Холден, Лианнет Боррего, Майкл Джей Уайт, Джастин Уоррингтон

Описание: Старого ищейку Риджмана и безбашенного Энтони отстраняют от дел после того, как в сеть попадает видео, где напарники жестко выбивают признание из подозреваемого. Не имея других средств к существованию, экс-копы находят работу в криминальном подполье...

Перевод: отсутствует | субтитры
Субтитры: отдельными файлами / русские, английские

Качество: WEBRip
Формат: AVI
Видео кодек: XviD
Аудио кодек: МР3
Видео: 720x304 (2.35:1), 23.976 fps, XviD build 67 ~1 181 kbps avg
Аудио: 48 kHz, MPEG Layer 3, 2 ch, ~128.00 kbps avg | ENG
Формат субтитров: *SRT

Дата премьеры (мир): 3 сентября 2018
Дата премьеры (РФ): 21 марта 2019, «Парадиз»

Релиз от: Dalemake


[+] Media Info
General
Полное имя                               : Zakatat`_v_asfalt_2018_WEB-DLRip_Sub_by_Dalemake.avi
ормат                                   : AVI
Формат/Информация                        : Audio Video Interleave
Размер файла                             : 1,46 Гбайт
Продолжительность                        : 2 ч. 38 м.
Общий поток                              : 1318 Кбит/сек
Программа кодирования                    : VirtualDubMod 1.5.10.3 | (build 2550/release)
Библиотека кодирования                   : VirtualDubMod build 2550/release

Видео
Идентификатор                            : 0
Формат                                   : MPEG-4 Visual
Профиль формата                          : Advanced Simple@L5
Параметр BVOP формата                    : 1
Параметр QPel формата                    : Нет
Параметр GMC формата                     : Без точки перехода
Параметр матрицы формата                 : Выборочная
Идентификатор кодека                     : XVID
Идентификатор кодека/Подсказка           : XviD
Продолжительность                        : 2 ч. 38 м.
Битрейт                                  : 1181 Кбит/сек
Ширина                                   : 720 пикселей
Высота                                   : 304 пикселя
Соотношение сторон                       : 2,35:1
Частота кадров                           : 23,976 кадра/сек
Цветовое пространство                    : YUV
Субдискретизация насыщенности            : 4:2:0
Битовая глубина                          : 8 бит
Тип развёртки                            : Прогрессивная
Метод сжатия                             : С потерями
Бит/(Пиксели*Кадры)                      : 0.225
Размер потока                            : 1,31 Гбайт (90%)
Библиотека кодирования                   : XviD 67

Аудио
Идентификатор                            : 1
Формат                                   : MPEG Audio
Версия формата                           : Version 1
Профиль формата                          : Layer 3
Идентификатор кодека                     : 55
Идентификатор кодека/Подсказка           : MP3
Продолжительность                        : 2 ч. 38 м.
Вид битрейта                             : Постоянный
Битрейт                                  : 128 Кбит/сек
Каналы                                   : 2 канала
Частота                                  : 48,0 КГц
Метод сжатия                             : С потерями
Размер потока                            : 145 Мбайт (10%)
Выравнивание                             : Соединение по промежуткам
Продолжительность промежутка             : 42  мс. (1,00 видеокадр)
Время предзагрузки промежутка            : 504  мс.
Библиотека кодирования                   : LAME3.99r
Настройки программы                      : -m s -V 4 -q 2 -lowpass 17 -b 128



Скриншоты:
[+] Всего файлов в раздаче - 3:
Zakatat`_v_asfalt_2018_WEB-DLRip_Sub_by_Dalemake_Eng_Sub.srt114.23 kB
Zakatat`_v_asfalt_2018_WEB-DLRip_Sub_by_Dalemake_Rus_Sub.srt140.51 kB
Zakatat`_v_asfalt_2018_WEB-DLRip_Sub_by_Dalemake.avi1.46 GB

Похожие раздачи по запросу - закатать:
Вчера U Закатать в асфальт / Dragged Across Concrete (2018) BDRip-AVC от OlLanDGroup | D, P | iTunes 3.11 GB ↑ 44 ↓ 14

Отзывы
Зарегистрируйтесь чтобы добавить комментарий.
Обратная связь
Copyleft ©