↑↓Torrent.by
Поиск
Логин: Регистрация
Пароль: Восстановить пароль
Загрузка...

Астерикс и тайное зелье / Asterix: Le secret de la potion magique (2018) BDRemux 1080p от селезень | iTunes

Скачать asteriks-i-taynoe-zele-asterix-le-secret-de-la-potion-magique-2018-bdremux-1080p-ot-selezen-itunes.torrent
U Магнитная ссылка Размер: 20.41 GB Раздают: 177 Качают: 118 Добавлен: 2019-04-06 17:36:32
Астерикс и тайное зелье / Asterix: Le secret de la potion magique (2018) BDRemux 1080p от селезень | iTunes

Название: Астерикс и тайное зелье
Оригинальное название: Astérix: Le secret de la potion magique
Год выхода: 2018
Жанр: Мультфильм, фэнтези, приключения, детский, семейный, полнометражный
Режиссер: Александр Астье, Луи Клиши
В ролях: Кристиан Клавье, Гийом Бриа, Алекс Лутс, Александр Астье, Эли Семун, Даниэль Месгиш, Бернар Алан, Франсуа Морель, Лионель Астье, Флоренс Форести

О фильме: Могучие галлы издревле черпали силу в секретном напитке, который готовил великий старец. Но пришла беда, откуда не ждали — почтенный друид свалился с дерева и сломал обе ноги. Теперь Астериксу и Обеликсу предстоит отправиться в опасное путешествие, чтобы отыскать нового друида, достойного постичь рецепт тайного зелья.

Страна: Франция
Студия: M6 Studio, M6 Films, Les Editions Albert René
Продолжительность: 01:24:55
Перевод: Дублированный | iTunes

Качество: BDRemux 1080p
Видео: MPEG-4 AVC, 1920x1080, 29.7 Mbit/s, 24 fps
Звук:
Аудио #01: 48 kHz, AC3, 5.1, 384 Kbps | iTunes | RUS |
Аудио #02: 48 kHz, AC3, 5.1, 384 Kbps | iTunes | UKR |
Аудио #03: 48 kHz, DTS-HD MA, 5.1, 3901 Kbps | Оригинал |  FRE |
Субтитры: Русские (Full)

Релиз:


[+] MI
General
Unique ID                   : 84423971783189946205353509373375214099 (0x3F83772CDA1295761553E9F4DC20F213)
Complete name               : D:Video111Asterix.Le.Secret.de.la.Potion.Magique.2018.BDREMUX.1080p.seleZen.mkv
Format                      : Matroska
Format version              : Version 4
File size                   : 20.4 GiB
Duration                    : 1 h 24 min
Overall bit rate mode       : Variable
Overall bit rate            : 34.4 Mb/s
Movie name                  : Asterix Le Secret de la Potion Magique 2018 from селезень
Encoded date                : UTC 2019-04-06 02:37:40
Writing application         : mkvmerge v32.0.0 ('Astral Progressions') 64-bit
Writing library             : libebml v1.3.7 + libmatroska v1.5.0

Video
ID                          : 1
Format                      : AVC
Format/Info                 : Advanced Video Codec
Format profile              : High@L4.1
Format settings             : CABAC / 4 Ref Frames
Format settings, CABAC      : Yes
Format settings, ReFrames   : 4 frames
Format settings, GOP        : M=3, N=12
Codec ID                    : V_MPEG4/ISO/AVC
Duration                    : 1 h 24 min
Bit rate mode               : Variable
Bit rate                    : 29.7 Mb/s
Maximum bit rate            : 36.0 Mb/s
Width                       : 1 920 pixels
Height                      : 1 080 pixels
Display aspect ratio        : 16:9
Frame rate mode             : Constant
Frame rate                  : 24.000 FPS
Color space                 : YUV
Chroma subsampling          : 4:2:0
Bit depth                   : 8 bits
Scan type                   : Progressive
Bits/(Pixel*Frame)          : 0.598
Stream size                 : 17.6 GiB (86%)
Language                    : French
Default                     : Yes
Forced                      : No

Audio #1
ID                          : 2
Format                      : AC-3
Format/Info                 : Audio Coding 3
Commercial name             : Dolby Digital
Codec ID                    : A_AC3
Duration                    : 1 h 24 min
Bit rate mode               : Constant
Bit rate                    : 384 kb/s
Channel(s)                  : 6 channels
Channel layout              : L R C LFE Ls Rs
Sampling rate               : 48.0 kHz
Frame rate                  : 31.250 FPS (1536 SPF)
Bit depth                   : 16 bits
Compression mode            : Lossy
Stream size                 : 233 MiB (1%)
Title                       : iTunes
Language                    : Russian
Service kind                : Complete Main
Default                     : Yes
Forced                      : Yes

Audio #2
ID                          : 3
Format                      : AC-3
Format/Info                 : Audio Coding 3
Commercial name             : Dolby Digital
Codec ID                    : A_AC3
Duration                    : 1 h 24 min
Bit rate mode               : Constant
Bit rate                    : 384 kb/s
Channel(s)                  : 6 channels
Channel layout              : L R C LFE Ls Rs
Sampling rate               : 48.0 kHz
Frame rate                  : 31.250 FPS (1536 SPF)
Bit depth                   : 16 bits
Compression mode            : Lossy
Stream size                 : 233 MiB (1%)
Title                       : iTunes
Language                    : Ukrainian
Service kind                : Complete Main
Default                     : No
Forced                      : No

Audio #3
ID                          : 4
Format                      : DTS XLL
Format/Info                 : Digital Theater Systems
Commercial name             : DTS-HD Master Audio
Codec ID                    : A_DTS
Duration                    : 1 h 24 min
Bit rate mode               : Variable
Bit rate                    : 3 901 kb/s
Channel(s)                  : 6 channels
Channel layout              : C L R Ls Rs LFE
Sampling rate               : 48.0 kHz
Frame rate                  : 93.750 FPS (512 SPF)
Bit depth                   : 24 bits
Compression mode            : Lossless
Stream size                 : 2.31 GiB (11%)
Title                       : Original
Language                    : French
Default                     : No
Forced                      : No

Text
ID                          : 5
Format                      : UTF-8
Codec ID                    : S_TEXT/UTF8
Codec ID/Info               : UTF-8 Plain Text
Duration                    : 1 h 17 min
Bit rate                    : 120 b/s
Count of elements           : 921
Stream size                 : 68.6 KiB (0%)
Title                       : Full
Language                    : Russian
Default                     : No
Forced                      : No

Menu
00:00:00.000                : fr:Глава 01
00:06:16.042                : fr:Глава 02
00:15:43.250                : fr:Глава 03
00:21:45.167                : fr:Глава 04
00:28:47.792                : fr:Глава 05
00:35:00.000                : fr:Глава 06
00:42:39.458                : fr:Глава 07
00:50:30.333                : fr:Глава 08
00:57:33.708                : fr:Глава 09
01:04:05.458                : fr:Глава 10
01:13:32.000                : fr:Глава 11
01:21:07.333                : fr:Глава 12



Скриншоты:
[+] Всего файлов в раздаче - 1:
Asterix.Le.Secret.de.la.Potion.Magique.2018.BDREMUX.1080p.seleZen.mkv20.41 GB

Показать еще раздачи по запросу астерикс:
2019-04-10 U Астерикс и тайное зелье / Astérix: Le secret de la potion magique (2018) BDRip от ExKinoRay | iTunes 1.42 GB ↑ 37 ↓ 20
2019-04-09 U Астерикс и тайное зелье / Astérix: Le secret de la potion magique (2018) HDRip от Scarabey | iTunes 1.41 GB ↑ 122 ↓ 35
2019-04-07 U Астерикс и тайное зелье / Astérix: Le secret de la potion magique (2018) BDRip-AVC от HELLYWOOD | iTunes 1.42 GB ↑ 226 ↓ 26
2019-04-07 U Астерикс и тайное зелье / Asterix: Le secret de la potion magique (2018) HDRip от Portablius | iTunes 745.73 MB ↑ 146 ↓ 25
2019-04-06 U Астерикс и тайное зелье / Astérix: Le secret de la potion magique (2018) BDRip-AVC от HELLYWOOD | iTunes 2.14 GB ↑ 234 ↓ 63
2019-04-06 U Астерикс и тайное зелье / Asterix: Le secret de la potion magique (2018) BDRip 720p от селезень | iTunes 3.66 GB ↑ 368 ↓ 159
2019-04-06 U Астерикс и тайное зелье / Asterix: Le secret de la potion magique (2018) BDRip 1080p от селезень | iTunes 7.22 GB ↑ 985 ↓ 283

Отзывы
Зарегистрируйтесь чтобы добавить комментарий.
Обратная связь
Copyleft ©