↑↓Torrent.by
Поиск
Логин: Регистрация
Пароль: Восстановить пароль
Загрузка...

Как приручить дракона 3 / How to Train Your Dragon: The Hidden World (2019) WEB-DL 1080p | Line

Скачать kak-priruchit-drakona-3-how-to-train-your-dragon-the-hidden-world-2019-web-dl-1080p-line.torrent
U Магнитная ссылка Размер: 3.58 GB Раздают: 511 Качают: 165 Добавлен: 2019-04-07 09:20:54
Как приручить дракона 3 / How to Train Your Dragon: The Hidden World (2019) WEB-DL 1080p | Line

Год выпуска: 2019
Страна: США
Жанр:  мультфильм, фэнтези, комедия, приключения, семейный
Продолжительность: 01:44:26
Перевод: Профессиональный (полное дублирование)
Режиссёр: Дин ДеБлуа
В ролях: Кейт Бланшетт, Джерард Батлер, Джона Хилл, Кит Харингтон, Кристен Уиг, Джей Барушель, Кристофер Минц-Плассе, Америка Феррера, Оулавюр Дарри Оулафссон, Ф. Мюррэй Абрахам, Крэйг Фергюсон, Джастин Руппл
Студия: DreamWorks Animation, Mad Hatter Entertainment
Описание: Когда-то викинги жили в гармонии с драконами. В те времена они делили радость, горе… и последние штаны. Казалось, что так будет всегда, но появление загадочной Дневной Фурии изменило жизнь острова. И теперь Иккинг и Беззубик столкнутся с безжалостным охотником на драконов, жаждущим уничтожить все, что им дорого.



[+] MediaInfo
General
Unique ID                   : 247664035329696523531876579870590475136 (0xBA525BB19D2D0EC68AF44C5C21199B80)
Complete name               : C:UsersДзамболатDownloadsHow to Train Your Dragon 3.mkv
Format                      : Matroska
Format version              : Version 4 / Version 2
File size                   : 3.58 GiB
Duration                    : 1 h 44 min
Overall bit rate            : 4 905 kb/s
Movie name                  : How to Train Your Dragon The Hidden World 2019 from селезень
Encoded date                : UTC 2019-04-06 14:25:54
Writing application         : mkvmerge v24.0.0 ('Beyond The Pale') 64-bit
Writing library             : libebml v1.3.6 + libmatroska v1.4.9

Video
ID                          : 1
Format                      : AVC
Format/Info                 : Advanced Video Codec
Format profile              : High@L4
Format settings             : CABAC / 5 Ref Frames
Format settings, CABAC      : Yes
Format settings, ReFrames   : 5 frames
Codec ID                    : V_MPEG4/ISO/AVC
Duration                    : 1 h 44 min
Bit rate                    : 4 521 kb/s
Width                       : 1 920 pixels
Height                      : 816 pixels
Display aspect ratio        : 2.35:1
Frame rate mode             : Constant
Frame rate                  : 23.976 FPS
Color space                 : YUV
Chroma subsampling          : 4:2:0
Bit depth                   : 8 bits
Scan type                   : Progressive
Bits/(Pixel*Frame)          : 0.120
Stream size                 : 3.30 GiB (92%)
Language                    : English
Default                     : Yes
Forced                      : No
Color range                 : Limited
Color primaries             : BT.709
Transfer characteristics    : BT.709
Matrix coefficients         : BT.709

Audio
ID                          : 2
Format                      : AC-3
Format/Info                 : Audio Coding 3
Commercial name             : Dolby Digital
Codec ID                    : A_AC3
Duration                    : 1 h 44 min
Bit rate mode               : Constant
Bit rate                    : 384 kb/s
Channel(s)                  : 6 channels
Channel layout              : L R C LFE Ls Rs
Sampling rate               : 48.0 kHz
Frame rate                  : 31.250 FPS (1536 SPF)
Bit depth                   : 16 bits
Compression mode            : Lossy
Stream size                 : 286 MiB (8%)
Service kind                : Complete Main
Default                     : Yes
Forced                      : No




Скриншоты:
[+] Всего файлов в раздаче - 1:
How to Train Your Dragon 3.mkv3.58 GB

Показать еще раздачи по запросу приручить:
Сегодня U Как приручить дракона 3 / How to Train Your Dragon: The Hidden World (2019) BDRip 1080p от селезень | D, P | iTunes 8.10 GB ↑ 49 ↓ 15
2019-04-14 U Как приручить дракона 3 / How to Train Your Dragon: The Hidden World (2019) BDRip 1080p от Ash61 | 3D-Video | halfOU | Line 8.74 GB ↑ 72 ↓ 54
2019-04-13 U Как приручить дракона 3 / How to Train Your Dragon: The Hidden World (2019) HDRip от Scarabey | Line 1.40 GB ↑ 120 ↓ 29
2019-04-09 U Как приручить дракона 3 / How to Train Your Dragon: The Hidden World (2019) BDRip-AVC от OlLanDGroup | D, P | Line 2.10 GB ↑ 85 ↓ 35
2019-04-09 U Как приручить дракона 3 / How to Train Your Dragon: The Hidden World (2019) BDRip 1080p от селезень | D, P | Line 8.10 GB ↑ 277 ↓ 111
2019-04-08 U Как приручить дракона 3 / How to Train Your Dragon: The Hidden World (2019) BDRip от MegaPeer | Line 1.41 GB ↑ 620 ↓ 33
2019-04-05 U Как приручить дракона 3 / How to Train Your Dragon: The Hidden World (2019) WEB-DLRip от Scarabey | HDRezka Studio 1.44 GB ↑ 83 ↓ 24

Отзывы
Зарегистрируйтесь чтобы добавить комментарий.
Обратная связь
Copyleft ©