↑↓Torrent.by
Поиск
Логин: Регистрация
Пароль: Восстановить пароль
Загрузка...

Астерикс и тайное зелье / Asterix: Le secret de la potion magique (2018) HDRip от Portablius | iTunes

Скачать asteriks-i-taynoe-zele-asterix-le-secret-de-la-potion-magique-2018-hdrip-ot-portablius-itunes.torrent
U Магнитная ссылка Размер: 745.73 MB Раздают: 133 Качают: 24 Добавлен: 2019-04-07 09:25:15
Астерикс и тайное зелье / Asterix: Le secret de la potion magique (2018) HDRip от Portablius | iTunes

Название: Астерикс и тайное зелье
Оригинальное название: Asterix: Le secret de la potion magique
Год выхода: 2018
Жанр: Мультфильм, фэнтези
Режиссер: Александр Астье, Луи Клиши
В ролях: Иван Калинин, Алексей Колган, Евгений Толоконников, Александр Скиданов, Олег Зима, Игорь Ясулович, Владимир Паляница

О фильме: Могучие галлы издревле черпали силу в секретном напитке, который готовил великий старец. Но пришла беда, откуда не ждали - почтенный друид свалился с дерева и сломал обе ноги. Теперь Астериксу и Обеликсу предстоит отправиться в опасное путешествие, чтобы отыскать нового друида, достойного постичь рецепт тайного зелья.

Страна: Франция
Студия: Canal+ [fr], Centre National de la Cinematographie (CNC), Les Editions Albert Rene, M6, M6 Films, M6 Studio, Mikros Image, OCS, Region Ile-de-France, W9
Продолжительность: 01:24:55
Перевод: Дублированный [iTunes]
Субтитры: Русские (full) (вшитые)

Файл
Кодек: XviD
Качество: HDRip
Видео: 720x304 (2.37:1), 24.000 fps, XviD build 73 ~1090 kbps avg, 0.21 bit/pixel
Звук: 48 kHz, MPEG Layer 3, 2 ch, ~128.00 kbps avg


[+] MediaInfo
General
Complete name               : Asterix.Le.secret.de.la.potion.magique.2018.HDRip.Portablius.avi
Format                      : AVI
Format/Info                 : Audio Video Interleave
File size                   : 746 MiB
Duration                    : 1 h 24 min
Overall bit rate            : 1 228 kb/s
Writing application         : VirtualDubMod 1.5.10.3 | www.virtualdub-fr.org || (build 2550/release)
Writing library             : VirtualDubMod build 2550/release

Video
ID                          : 0
Format                      : MPEG-4 Visual
Format profile              : Advanced Simple@L5
Format settings             : BVOP1 / Custom Matrix
Format settings, BVOP       : 1
Format settings, QPel       : No
Format settings, GMC        : No warppoints
Format settings, Matrix     : Custom
Codec ID                    : XVID
Codec ID/Hint               : XviD
Duration                    : 1 h 24 min
Bit rate                    : 1 091 kb/s
Width                       : 720 pixels
Height                      : 304 pixels
Display aspect ratio        : 2.35:1
Frame rate                  : 24.000 FPS
Color space                 : YUV
Chroma subsampling          : 4:2:0
Bit depth                   : 8 bits
Scan type                   : Progressive
Compression mode            : Lossy
Bits/(Pixel*Frame)          : 0.208
Stream size                 : 662 MiB (89%)
Writing library             : XviD 73

Audio
ID                          : 1
Format                      : MPEG Audio
Format version              : Version 1
Format profile              : Layer 3
Codec ID                    : 55
Codec ID/Hint               : MP3
Duration                    : 1 h 24 min
Bit rate mode               : Constant
Bit rate                    : 128 kb/s
Channel(s)                  : 2 channels
Sampling rate               : 48.0 kHz
Frame rate                  : 41.667 FPS (1152 SPF)
Compression mode            : Lossy
Stream size                 : 77.7 MiB (10%)
Alignment                   : Aligned on interleaves
Interleave, duration        : 42  ms (1.00 video frame)
Interleave, preload duratio : 504  ms
Writing library             : LAME3.99r
Encoding settings           : -m s -V 4 -q 2 -lowpass 17 -b 128




Скриншоты:
[+] Всего файлов в раздаче - 1:
Asterix.Le.secret.de.la.potion.magique.2018.HDRip.Portablius.avi745.73 MB

Показать еще раздачи по запросу астерикс:
2019-04-10 U Астерикс и тайное зелье / Astérix: Le secret de la potion magique (2018) BDRip от ExKinoRay | iTunes 1.42 GB ↑ 26 ↓ 11
2019-04-09 U Астерикс и тайное зелье / Astérix: Le secret de la potion magique (2018) HDRip от Scarabey | iTunes 1.41 GB ↑ 59 ↓ 31
2019-04-07 U Астерикс и тайное зелье / Astérix: Le secret de la potion magique (2018) BDRip-AVC от HELLYWOOD | iTunes 1.42 GB ↑ 157 ↓ 26
2019-04-06 U Астерикс и тайное зелье / Asterix: Le secret de la potion magique (2018) BDRemux 1080p от селезень | iTunes 20.41 GB ↑ 173 ↓ 114
2019-04-06 U Астерикс и тайное зелье / Astérix: Le secret de la potion magique (2018) BDRip-AVC от HELLYWOOD | iTunes 2.14 GB ↑ 235 ↓ 62
2019-04-06 U Астерикс и тайное зелье / Asterix: Le secret de la potion magique (2018) BDRip 720p от селезень | iTunes 3.66 GB ↑ 364 ↓ 159
2019-04-06 U Астерикс и тайное зелье / Asterix: Le secret de la potion magique (2018) BDRip 1080p от селезень | iTunes 7.22 GB ↑ 861 ↓ 283

Отзывы
Зарегистрируйтесь чтобы добавить комментарий.
Обратная связь
Copyleft ©