↑↓Torrent.by
Поиск
Логин: Регистрация
Пароль: Восстановить пароль
Загрузка...

Сенсор (2019) HDTV 1080i

Скачать sensor-2019-hdtv-1080i.torrent
U Магнитная ссылка Размер: 5.50 GB Раздают: 195 Качают: 24 Добавлен: 2019-04-07 09:25:39
Сенсор (2019) HDTV 1080i

Название: Сенсор
Год выпуска: 2019
Жанр:  Триллер
Режиссёр: Андрей Загидуллин
В ролях: Евгений Михеев, Марина Курочка, Олег Васильков, Александр Мохов

Описание: Максим обладает не очень приятной способностью — он чувствует боль других людей как свою собственную. С такой особенностью Макс вырос замкнутым, одиноким, стеснительным парнем. Единственная его радость — соседская девушка Лена. Макс давно влюблен в нее, но все не решается подойти и познакомиться. В один из дней на Лену нападает жестокий маньяк. Макс, который в это время оказался рядом, хочет прийти на помощь, но не может — его перекрывает от боли, которую маньяк причиняет Лене. Единственное, что у Макса получается сделать, — вызвать полицию. Благодаря этому маньяк не успевает завершить начатое, и Лена остается жива. Но теперь она находится в больнице, сильно травмированная и напуганная. Макс решает найти маньяка с помощью своей способности — ведь он, словно радар, может почувствовать сильную боль, которую маньяк причиняет своим жертвам.

Страна: Россия
Студия: 1-2-3 Продакшн
Продолжительность: 01:32:49
Перевод: Не требуется

Файл
Качество: HDTV 1080i
Контейнер: TS
Видео: MPEG4 AVC Video, H264, 16:9, 1920x1080, 25 fps, 7866 kbps
Аудио: Russian: MP2, 2 ch, 192 kbps, 16 bits, 48.0 KHz
Субтитры: Нет


[+] MediaInfo
General
ID : 1 (0x1)
Complete name : D:Sensor.2019.HDTV.1080i.ts
Format : MPEG-TS
File size : 5.50 GiB
Duration : 1 h 32 min
Overall bit rate mode : Variable
Overall bit rate : 8 479 kb/s

Video
ID : 5031 (0x13A7)
Menu ID : 1380 (0x564)
Format : AVC
Format/Info : Advanced Video Codec
Format profile : High@L4
Format settings : CABAC / 4 Ref Frames
Format settings, CABAC : Yes
Format settings, ReFrames : 4 frames
Codec ID : 27
Duration : 1 h 32 min
Bit rate : 7 866 kb/s
Width : 1 920 pixels
Height : 1 080 pixels
Display aspect ratio : 16:9
Frame rate : 25.000 FPS
Color space : YUV
Chroma subsampling : 4:2:0
Bit depth : 8 bits
Scan type : MBAFF
Scan type, store method : Interleaved fields
Scan order : Top Field First
Bits/(Pixel*Frame) : 0.152
Stream size : 5.10 GiB (93%)

Audio
ID : 5032 (0x13A8)
Menu ID : 1380 (0x564)
Format : MPEG Audio
Format version : Version 1
Format profile : Layer 2
Format settings : Joint stereo / Intensity Stereo + MS Stereo
Codec ID : 3
Duration : 1 h 32 min
Bit rate mode : Constant
Bit rate : 192 kb/s
Channel(s) : 2 channels
Sampling rate : 48.0 kHz
Frame rate : 41.667 FPS (1152 SPF)
Compression mode : Lossy
Delay relative to video : -160 ms
Stream size : 127 MiB (2%)
Language : Russian



Скриншоты:
[+] Всего файлов в раздаче - 1:
Sensor.2019.HDTV.1080i.ts5.50 GB

Похожие раздачи по запросу - сенсор:
2019-04-07 U Сенсор (2019) HDTVRip от Portablius 744.70 MB ↑ 82 ↓ 12
2019-04-07 U Сенсор [01-02 из 02] (2019) WEBRip от Files-x 1.17 GB ↑ 98 ↓ 17
2019-04-07 U Сенсор [01-02 из 02] (2019) WEBRip-AVC от Files-х 1.16 GB ↑ 88 ↓ 24
2019-04-06 U Сенсор (2019) HDTVRip 720p от ExKinoRay 2.72 GB ↑ 150 ↓ 31
2019-04-06 U Сенсор [01-02 из 02] (2019) WEBRip 720p от Files-x 2.05 GB ↑ 132 ↓ 53
2019-04-06 U Сенсор (2018) SATRip 1.37 GB ↑ 244 ↓ 61

Отзывы
Зарегистрируйтесь чтобы добавить комментарий.
Обратная связь
Copyleft ©