↑↓Torrent.by
Поиск
Логин: Регистрация
Пароль: Восстановить пароль
Загрузка...

Ван Гоги (2018) WEB-DLRip от GeneralFilm | iTunes

Скачать van-gogi-2018-web-dlrip-ot-generalfilm-itunes.torrent
U Магнитная ссылка Размер: 745.54 MB Раздают: 156 Качают: 29 Добавлен: 2019-04-07 16:05:40
Ван Гоги (2018) WEB-DLRip от GeneralFilm | iTunes

Оригинальное название: Ван Гоги
Год выпуска: 2018
Жанр:  Драма
Выпущено: Россия, Леополис
Режиссер: Сергей Ливнев
В ролях: Алексей Серебряков, Даниэль Ольбрыхский, Елена Коренева, Полина Агуреева, Наталья Негода, Александр Сирин, Светлана Немоляева, Ольга Остроумова, Ёла Санько, Евгений Ткачук

О фильме: Отец — прославленный дирижер. Сын — талантливый, но неизвестный художник. Их отношения давно превратились в любовь-ненависть, в которой больше ненависти, чем любви. Они живут на разных концах света и стараются не видеться без необходимости. Когда такая необходимость неожиданно возникает, самые близкие и одновременно далекие люди должны будут пройти непростой путь примирения.

Качество: WEB-DLRip
Видео: XviD build 73, 656x368 (16:9), 25.000 fps, 920 Kbps (0.152 bit/pixel)
Аудио: 48.0 kHz, MP3, 2/0 ch, 128 kbps
Продолжительность: 01:38:34
Перевод: Не требуется [Русский]
Cубтитры: русские [на иностранную речь]

Релиз:


[+] MediaInfo

General
Complete name               : D:RazdachiVan.Gogi.2019.WEBRip.GeneralFilm.avi
Format                      : AVI
Format/Info                 : Audio Video Interleave
File size                   : 746 MiB
Duration                    : 1 h 38 min
Overall bit rate            : 1 057 kb/s
Writing application         : VirtualDubMod 1.5.10.3 | www.virtualdub-fr.org || (build 2550/release)
Writing library             : VirtualDubMod build 2550/release

Video
ID                          : 0
Format                      : MPEG-4 Visual
Format profile              : Advanced Simple@L5
Format settings             : BVOP1 / Custom Matrix
Format settings, BVOP       : 1
Format settings, QPel       : No
Format settings, GMC        : No warppoints
Format settings, Matrix     : Custom
Codec ID                    : XVID
Codec ID/Hint               : XviD
Duration                    : 1 h 38 min
Bit rate                    : 920 kb/s
Width                       : 656 pixels
Height                      : 368 pixels
Display aspect ratio        : 16:9
Frame rate                  : 25.000 FPS
Color space                 : YUV
Chroma subsampling          : 4:2:0
Bit depth                   : 8 bits
Scan type                   : Progressive
Compression mode            : Lossy
Bits/(Pixel*Frame)          : 0.152
Stream size                 : 648 MiB (87%)
Writing library             : XviD 73

Audio
ID                          : 1
Format                      : MPEG Audio
Format version              : Version 1
Format profile              : Layer 3
Codec ID                    : 55
Codec ID/Hint               : MP3
Duration                    : 1 h 38 min
Bit rate mode               : Constant
Bit rate                    : 128 kb/s
Channel(s)                  : 2 channels
Sampling rate               : 48.0 kHz
Frame rate                  : 41.667 FPS (1152 SPF)
Compression mode            : Lossy
Stream size                 : 90.2 MiB (12%)
Alignment                   : Aligned on interleaves
Interleave, duration        : 40  ms (1.00 video frame)
Interleave, preload duratio : 504  ms
Writing library             : LAME3.99r
Encoding settings           : -m s -V 4 -q 2 -lowpass 17 -b 128



Скриншоты:
[+] Всего файлов в раздаче - 1:
Van.Gogi.2019.WEBRip.GeneralFilm.avi745.54 MB

Похожие раздачи по запросу - гоги:
2019-04-10 U Ван Гоги (2018) WEB-DLRip от Scarabey | iTunes 1.45 GB ↑ 24 ↓ 8
2019-04-08 U Ван Гоги (2018) WEB-DLRip-AVC от OlLanDGroup | iTunes 1.79 GB ↑ 76 ↓ 20
2019-04-08 U Ван Гоги (2018) WEB-DLRip от MegaPeer | iTunes 747.22 MB ↑ 49 ↓ 6
2019-04-07 U Ван Гоги (2018) WEB-DLRip | iTunes 1.46 GB ↑ 102 ↓ 54
2019-04-07 U Ван Гоги (2018) WEB-DL 1080p | iTunes 3.85 GB ↑ 262 ↓ 187

Отзывы
Зарегистрируйтесь чтобы добавить комментарий.
Обратная связь
Copyleft ©