↑↓Torrent.by
Поиск
Логин: Регистрация
Пароль: Восстановить пароль
Загрузка...

Ван Гоги (2018) WEB-DLRip | iTunes

Скачать van-gogi-2018-web-dlrip-itunes.torrent
U Магнитная ссылка Размер: 1.46 GB Раздают: 102 Качают: 54 Добавлен: 2019-04-07 16:06:08
Ван Гоги (2018) WEB-DLRip | iTunes

Название: Ван Гоги
Год выпуска: 2018
Жанр:  Драма
Режиссер: Сергей Ливнев
В ролях: Алексей Серебряков, Даниэль Ольбрыхский, Елена Коренева, Полина Агуреева, Наталья Негода, Александр Сирин, Светлана Немоляева, Ольга Остроумова, Ёла Санько, Евгений Ткачук

О фильме: Отец — прославленный дирижер. Сын — талантливый, но неизвестный художник. Их отношения давно превратились в любовь-ненависть, в которой больше ненависти, чем любви. Они живут на разных концах света и стараются не видеться без необходимости. Когда такая необходимость неожиданно возникает, самые близкие и одновременно далекие люди должны будут пройти непростой путь примирения.

Выпущено: Россия, Леополис
Продолжительность: 01:38:34
Язык: Русский | iTunes

Файл
Качество: WEB-DLRip
Формат: AVI
Видео: 704x400 (1.76:1), 25 fps, XviD build 73 ~1722 kbps avg, 0.24 bit/pixel
Аудио: 48 kHz, AC3 Dolby Digital, 3/2 (L,C,R,l,r) + LFE ch, ~384 kbps - iTunes
Субтитры: Русские (hardsub - на иностранную речь)


[+] MediaInfo
Формат                                   : AVI
Формат/Информация                        : Audio Video Interleave
Размер файла                             : 1,46 Гбайт
Продолжительность                        : 1 ч. 38 м.
Общий поток                              : 2116 Кбит/сек
Название фильма                          : Ван Гоги_2018_WEB-DLRip
Программа кодирования                    : VirtualDubMod 1.5.10.3
Авторское право                          : порошков

Видео
Идентификатор                            : 0
Формат                                   : MPEG-4 Visual
Профиль формата                          : Advanced Simple@L5
Настройки формата                        : BVOP1 / Custom Matrix
Параметр BVOP формата                    : 1
Параметр QPel формата                    : Нет
Параметр GMC формата                     : Без точки перехода
Параметр матрицы формата                 : Выборочная
Идентификатор кодека                     : XVID
Идентификатор кодека/Подсказка           : XviD
Продолжительность                        : 1 ч. 38 м.
Битрейт                                  : 1722 Кбит/сек
Ширина                                   : 704 пикселя
Высота                                   : 400 пикселей
Соотношение сторон                       : 16:9
Частота кадров                           : 25,000 кадров/сек
Цветовое пространство                    : YUV
Субдискретизация насыщенности            : 4:2:0
Битовая глубина                          : 8 бит
Тип развёртки                            : Прогрессивная
Метод сжатия                             : С потерями
Бит/(Пиксели*Кадры)                      : 0.245
Размер потока                            : 1,19 Гбайт (81%)
Библиотека кодирования                   : XviD 73

Аудио
Идентификатор                            : 1
Формат                                   : AC-3
Формат/Информация                        : Audio Coding 3
Коммерческое название                    : Dolby Digital
Идентификатор кодека                     : 2000
Продолжительность                        : 1 ч. 38 м.
Вид битрейта                             : Постоянный
Битрейт                                  : 384 Кбит/сек
Каналы                                   : 6 каналов
Channel layout                           : L R C LFE Ls Rs
Частота                                  : 48,0 КГц
Частота кадров                           : 31,250 кадров/сек (1536 SPF)
Битовая глубина                          : 16 бит
Метод сжатия                             : С потерями
Размер потока                            : 271 Мбайт (18%)
Выравнивание                             : Разделение по промежуткам
Продолжительность промежутка             : 40  мс. (1,00 видеокадр)
Время предзагрузки промежутка            : 500  мс.
Язык                                     : Русский



Скриншоты:
[+] Всего файлов в раздаче - 1:
Ван Гоги_2018_WEB-DLRip.avi1.46 GB

Похожие раздачи по запросу - гоги:
2019-04-10 U Ван Гоги (2018) WEB-DLRip от Scarabey | iTunes 1.45 GB ↑ 27 ↓ 8
2019-04-08 U Ван Гоги (2018) WEB-DLRip-AVC от OlLanDGroup | iTunes 1.79 GB ↑ 80 ↓ 21
2019-04-08 U Ван Гоги (2018) WEB-DLRip от MegaPeer | iTunes 747.22 MB ↑ 49 ↓ 6
2019-04-07 U Ван Гоги (2018) WEB-DLRip от GeneralFilm | iTunes 745.54 MB ↑ 156 ↓ 31
2019-04-07 U Ван Гоги (2018) WEB-DL 1080p | iTunes 3.85 GB ↑ 316 ↓ 187

Отзывы
Зарегистрируйтесь чтобы добавить комментарий.
Обратная связь
Copyleft ©