↑↓Torrent.by
Поиск
Логин: Регистрация
Пароль: Восстановить пароль
Загрузка...

Сенсор (2019) HDTVRip от Portablius

Скачать sensor-2019-hdtvrip-ot-portablius.torrent
U Магнитная ссылка Размер: 744.70 MB Раздают: 82 Качают: 12 Добавлен: 2019-04-07 16:16:48
Сенсор (2019) HDTVRip от Portablius

Название: Сенсор
Год выхода: 2019
Жанр: Триллер
Режиссер: Андрей Загидуллин
В ролях: Евгений Михеев, Марина Курочка, Олег Васильков, Александр Мохов

О фильме: Максим обладает не очень приятной способностью — он чувствует боль других людей как свою собственную. С такой особенностью Макс вырос замкнутым, одиноким, стеснительным парнем. Единственная его радость — соседская девушка Лена. Макс давно влюблен в нее, но все не решается подойти и познакомиться. В один из дней на Лену нападает жестокий маньяк. Макс, который в это время оказался рядом, хочет прийти на помощь, но не может — его перекрывает от боли, которую маньяк причиняет Лене. Единственное, что у Макса получается сделать, — вызвать полицию. Благодаря этому маньяк не успевает завершить начатое, и Лена остается жива. Но теперь она находится в больнице, сильно травмированная и напуганная. Макс решает найти маньяка с помощью своей способности — ведь он, словно радар, может почувствовать сильную боль, которую маньяк причиняет своим жертвам.

Страна: Россия
Студия: 1-2-3 Продакшн
Продолжительность: 01:32:49
Перевод: Не требуется

Файл
Кодек: XviD
Качество: HDTVRip
Видео: 688x384 (1.79:1), 25 fps, XviD build 73 ~983 kbps avg, 0.15 bit/pixel
Звук: 48 kHz, MPEG Layer 3, 2 ch, ~128.00 kbps avg


[+] MediaInfo
General
Complete name               : Sensor.2019.HDTVRip.Portablius.avi
Format                      : AVI
Format/Info                 : Audio Video Interleave
File size                   : 745 MiB
Duration                    : 1 h 32 min
Overall bit rate            : 1 122 kb/s
Writing application         : VirtualDubMod 1.5.10.3 | www.virtualdub-fr.org || (build 2550/release)
Writing library             : VirtualDubMod build 2550/release

Video
ID                          : 0
Format                      : MPEG-4 Visual
Format profile              : Advanced Simple@L5
Format settings             : BVOP1 / Custom Matrix
Format settings, BVOP       : 1
Format settings, QPel       : No
Format settings, GMC        : No warppoints
Format settings, Matrix     : Custom
Codec ID                    : XVID
Codec ID/Hint               : XviD
Duration                    : 1 h 32 min
Bit rate                    : 984 kb/s
Width                       : 688 pixels
Height                      : 384 pixels
Display aspect ratio        : 16:9
Frame rate                  : 25.000 FPS
Color space                 : YUV
Chroma subsampling          : 4:2:0
Bit depth                   : 8 bits
Scan type                   : Progressive
Compression mode            : Lossy
Bits/(Pixel*Frame)          : 0.149
Stream size                 : 653 MiB (88%)
Writing library             : XviD 73

Audio
ID                          : 1
Format                      : MPEG Audio
Format version              : Version 1
Format profile              : Layer 3
Codec ID                    : 55
Codec ID/Hint               : MP3
Duration                    : 1 h 32 min
Bit rate mode               : Constant
Bit rate                    : 128 kb/s
Channel(s)                  : 2 channels
Sampling rate               : 48.0 kHz
Frame rate                  : 41.667 FPS (1152 SPF)
Compression mode            : Lossy
Stream size                 : 85.0 MiB (11%)
Alignment                   : Aligned on interleaves
Interleave, duration        : 40  ms (1.00 video frame)
Interleave, preload duratio : 504  ms
Writing library             : LAME3.99r
Encoding settings           : -m s -V 4 -q 2 -lowpass 17 -b 128




Скриншоты:
[+] Всего файлов в раздаче - 1:
Sensor.2019.HDTVRip.Portablius.avi744.70 MB

Похожие раздачи по запросу - сенсор:
2019-04-07 U Сенсор [01-02 из 02] (2019) WEBRip от Files-x 1.17 GB ↑ 85 ↓ 15
2019-04-07 U Сенсор [01-02 из 02] (2019) WEBRip-AVC от Files-х 1.16 GB ↑ 88 ↓ 24
2019-04-07 U Сенсор (2019) HDTV 1080i 5.50 GB ↑ 107 ↓ 21
2019-04-06 U Сенсор (2019) HDTVRip 720p от ExKinoRay 2.72 GB ↑ 150 ↓ 31
2019-04-06 U Сенсор [01-02 из 02] (2019) WEBRip 720p от Files-x 2.05 GB ↑ 77 ↓ 53
2019-04-06 U Сенсор (2018) SATRip 1.37 GB ↑ 244 ↓ 61

Отзывы
Зарегистрируйтесь чтобы добавить комментарий.
Обратная связь
Copyleft ©