↑↓Torrent.by
Поиск
Логин: Регистрация
Пароль: Восстановить пароль
Загрузка...

Что? Где? Когда? Весенняя серия игр [01-03 из 05] (2019) HDTVRip от GeneralFilm

Скачать chto-gde-kogda-vesennyaya-seriya-igr-01-03-iz-05-2019-hdtvrip-ot-generalfilm.torrent
U Магнитная ссылка Размер: 2.51 GB Раздают: 67 Качают: 190 Добавлен: 2019-04-08 15:13:54
Что? Где? Когда? Весенняя серия игр [01-03 из 05] (2019) HDTVRip от GeneralFilm

Год выпуска: 2019
Жанр:  Интеллектуальное шоу
Выпущено: Россия, Продюсерский центр "ИГРА-ТВ"
Ведущий: Борис Крюк

О фильме: Интеллектуальная викторина, наиболее распространённая в русскоязычной среде. Была создана в 1975 г. телеведущим Владимиром Ворошиловым. Игра очень быстро стала настолько популярной, что кроме оригинальной телевизионной версии появилась спортивная версия игры. Сущность игры заключается в противостоянии команды Знатоков (игровой команды из шести человек) команде Телезрителей. Знатоки должны за одну минуту при помощи мозгового штурма найти ответ на вопрос, присланный телезрителем. Как правило, игрокам задаются вопросы, ответить на которые можно с помощью общих знаний и логики. За каждый правильный ответ команда Знатоков получает одно очко, в случае неверного ответа очко начисляется команде Телезрителей. Игра ведётся до шести очков.

Качество: HDTVRip
Видео: XviD, ~ 1800 Кбит/с, 720x400
Аудио: Русский (AC3, 2 ch, 192 Кбит/с)
Продолжительность: 3 х ~ 01:00:00
Перевод: Не требуется
Субтитры: нет

Релиз:

Огромная благодарность Media-Art-Club за созданный постер к раздаче
[+] MediaInfo

Общее
Полное имя                               : D:Chto.Gde.Kogda.Vesennjaja serija.Igr.2019.HDTVRip.GeneralFilm1.Chto.Gde.Kogda.Vesennjaja serija.Igr.2019.HDTVRip.GeneralFilm.avi
Формат                                   : AVI
Формат/Информация                        : Audio Video Interleave
Размер файла                             : 933 Мбайт
Продолжительность                        : 1 ч. 5 м.
Общий поток                              : 1996 Кбит/сек
Программа кодирования                    : VirtualDubMod 1.5.10.3 | www.virtualdub-fr.org || (build 2550/release)
Библиотека кодирования                   : VirtualDubMod build 2550/release

Видео
Идентификатор                            : 0
Формат                                   : MPEG-4 Visual
Профиль формата                          : Advanced Simple@L5
Параметр BVOP формата                    : 1
Параметр QPel формата                    : Нет
Параметр GMC формата                     : Без точки перехода
Параметр матрицы формата                 : Выборочная
Идентификатор кодека                     : XVID
Идентификатор кодека/Подсказка           : XviD
Продолжительность                        : 1 ч. 5 м.
Битрейт                                  : 1794 Кбит/сек
Ширина                                   : 720 пикселей
Высота                                   : 400 пикселей
Соотношение сторон                       : 16:9
Частота кадров                           : 25,000 кадров/сек
Цветовое пространство                    : YUV
Субдискретизация насыщенности            : 4:2:0
Битовая глубина                          : 8 бит
Тип развёртки                            : Прогрессивная
Метод сжатия                             : С потерями
Бит/(Пиксели*Кадры)                      : 0.249
Размер потока                            : 838 Мбайт (90%)
Библиотека кодирования                   : XviD 1.2.1 (UTC 2008-12-04)

Аудио
Идентификатор                            : 1
Формат                                   : AC-3
Формат/Информация                        : Audio Coding 3
Расширение режима                        : CM (complete main)
Параметр Endianness формата              : Big
Идентификатор кодека                     : 2000
Продолжительность                        : 1 ч. 5 м.
Вид битрейта                             : Постоянный
Битрейт                                  : 192 Кбит/сек
Каналы                                   : 2 канала
Расположение каналов                     : Front: L R
Частота                                  : 48,0 КГц
Частота кадров                           : 31,250 кадров/сек (1536 spf)
Битовая глубина                          : 16 бит
Метод сжатия                             : С потерями
Размер потока                            : 89,7 Мбайт (10%)
Выравнивание                             : Разделение по промежуткам
Продолжительность промежутка             : 40  мс. (1,00 видеокадр)
Время предзагрузки промежутка            : 500  мс.




Скриншоты:
[+] Всего файлов в раздаче - 3:
01.Chto.Gde.Kogda.Vesennjaja serija.Igr.2019.HDTVRip.GeneralFilm.avi932.64 MB
02.Chto.Gde.Kogda.Vesennjaja serija.Igr.2019.HDTVRip.GeneralFilm.avi820.34 MB
03.Chto.Gde.Kogda.Vesennjaja serija.Igr.2019.HDTVRip.GeneralFilm.avi816.93 MB

Показать еще раздачи по запросу когда:
Вчера U Что? Где? Когда? Летняя серия игр [01-03 из 05] (2019) HDTVRip от GeneralFilm 2.49 GB ↑ 65 ↓ 181
2019-06-16 U Как преуспеть в делах, когда ты дурак и плакса / Comment réussir... quand on est con et pleurnichard (1974) DVDRip | L1 1.48 GB ↑ 51 ↓ 17
2019-06-10 U Что? Где? Когда? Летняя серия игр [01-02 из 05] (2019) HDTVRip от GeneralFilm 1.65 GB ↑ 20 ↓ 39
2019-06-03 U Что? Где? Когда? Летняя серия игр [01 из 05] (2019) HDTVRip от GeneralFilm 932.01 MB ↑ 103 ↓ 28
2019-05-23 U Непристойность / Когда любовь непристойна / Oscenita / Quando l'amore è oscenità (1980) DVDRip | A 1.36 GB ↑ 99 ↓ 26
2019-05-13 U Когда крепкие груди выпрыгивают наружу / Wenn die prallen Möpse hüpfen (1974) DVDRip-AVC от ExKinoRay | L1 745.23 MB ↑ 513 ↓ 97
2019-04-23 U Что? Где? Когда? Весенняя серия игр [01-05 из 05] (2019) HDTVRip от GeneralFilm 4.31 GB ↑ 68 ↓ 103

Отзывы
Зарегистрируйтесь чтобы добавить комментарий.
Обратная связь
Copyleft ©