↑↓Torrent.by
Поиск
Логин: Регистрация
Пароль: Восстановить пароль
Загрузка...

Ван Гоги (2018) WEB-DLRip-AVC от OlLanDGroup | iTunes

Скачать van-gogi-2018-web-dlrip-avc-ot-ollandgroup-itunes.torrent
U Магнитная ссылка Размер: 1.79 GB Раздают: 83 Качают: 21 Добавлен: 2019-04-08 15:14:03
Ван Гоги (2018) WEB-DLRip-AVC от OlLanDGroup | iTunes

Оригинальное название: Ван Гоги
Год выпуска: 2018
Жанр:  Драма
Выпущено: Россия / Леополис
Режиссер: Сергей Ливнев
В ролях: Алексей Серебряков, Даниэль Ольбрыхский, Елена Коренева, Полина Агуреева, Наталья Негода, Александр Сирин, Светлана Немоляева, Ольга Остроумова, Ёла Санько, Евгений Ткачук

О фильме: Отец — прославленный дирижер. Сын — талантливый, но неизвестный художник. Их отношения давно превратились в любовь-ненависть, в которой больше ненависти, чем любви. Они живут на разных концах света и стараются не видеться без необходимости. Когда такая необходимость неожиданно возникает, самые близкие и одновременно далекие люди должны будут пройти непростой путь примирения.

Качество: WEB-DLRip (AVC)
Видео: MPEG-4 AVC, 2216 Kбит/с, 1024x576, 25 кадр/с
Аудио: AC3, 6 ch, 384 Кбит/с
Размер: 1.79 ГБ
Продолжительность: 01:38:34
Язык: Русский

Озвучивание - (iTunes)
Сохранены оригинальные чаптеры.

Релиз:  Rip by:


[+] x264

264 [info]: frame I:955   Avg QP:13.80  size: 91241
x264 [info]: frame P:38901 Avg QP:17.04  size: 23580
x264 [info]: frame B:107997 Avg QP:18.22  size:  5867
x264 [info]: consecutive B-frames:  2.2%  5.2%  4.7% 71.2%  4.4%  8.5%  1.0%  1.4%  0.3%  0.3%  0.8%
x264 [info]: mb I  I16..4: 12.1% 58.4% 29.5%
x264 [info]: mb P  I16..4:  0.4%  7.0%  0.9%  P16..4: 30.3% 31.3% 14.5%  2.9%  0.4%    skip:12.4%
x264 [info]: mb B  I16..4:  0.0%  0.6%  0.1%  B16..8: 26.7% 16.7%  3.3%  direct: 4.6%  skip:48.0%  L0:36.4% L1:47.8% BI:15.8%
x264 [info]: 8x8 transform intra:79.5% inter:43.4%
x264 [info]: direct mvs  spatial:98.5% temporal:1.5%
x264 [info]: coded y,uvDC,uvAC intra: 91.9% 73.6% 50.5% inter: 19.8% 8.3% 4.6%
x264 [info]: i16 v,h,dc,p: 24% 10% 15% 50%
x264 [info]: i8 v,h,dc,ddl,ddr,vr,hd,vl,hu: 13% 10%  9%  8% 11% 12% 11% 12% 13%
x264 [info]: i4 v,h,dc,ddl,ddr,vr,hd,vl,hu: 15% 10%  6%  8% 14% 13% 12% 10% 11%
x264 [info]: i8c dc,h,v,p: 38% 28% 20% 14%
x264 [info]: Weighted P-Frames: Y:3.4% UV:1.7%
x264 [info]: ref P L0: 55.5%  9.3% 16.5%  5.0%  4.1%  2.8%  2.6%  1.3%  1.4%  1.3%  0.1%  0.0%
x264 [info]: ref B L0: 80.0% 10.2%  4.1%  2.0%  1.2%  1.1%  0.8%  0.4%  0.2%
x264 [info]: ref B L1: 95.7%  4.3%
x264 [info]: kb/s:2215.78



[+] Инфо-файл

Общее
Уникальный идентификатор                 : 205138280719200816154090409672161556423 (0x9A54321D2D977A489D1EF205D99AF7C7)
Полное имя                               : D:ЗагрузкиVan.Gogi.2018.x264.WEB-DLRip.(AVC).OlLanDGroup.mkv
Формат                                   : Matroska
Версия формата                           : Version 4 / Version 2
Размер файла                             : 1,79 Гбайт
Продолжительность                        : 1 ч. 38 м.
Общий поток                              : 2602 Кбит/сек
Название фильма                          : Ван Гоги.2018.Rip by: ollan
Дата кодирования                         : UTC 2019-04-07 17:23:20
Программа кодирования                    : mkvmerge v6.5.0 ('Isn't she lovely') built on Oct 20 2013 12:50:05
Библиотека кодирования                   : libebml v1.3.0 + libmatroska v1.4.1
Обложка                                  : Yes
Attachments                              : Cover - Van.Gogi.png

Видео
Идентификатор                            : 1
Формат                                   : AVC
Формат/Информация                        : Advanced Video Codec
Профиль формата                          : High@L4.1
Настройки формата                        : CABAC / 10 Ref Frames
Параметр CABAC формата                   : Да
Параметр ReFrames формата                : 10 кадров
Идентификатор кодека                     : V_MPEG4/ISO/AVC
Продолжительность                        : 1 ч. 38 м.
Битрейт                                  : 2216 Кбит/сек
Ширина                                   : 1024 пикселя
Высота                                   : 576 пикселей
Соотношение сторон                       : 16:9
Режим частоты кадров                     : Постоянный
Частота кадров                           : 25,000 кадров/сек
Цветовое пространство                    : YUV
Субдискретизация насыщенности            : 4:2:0
Битовая глубина                          : 8 бит
Тип развёртки                            : Прогрессивная
Бит/(Пиксели*Кадры)                      : 0.150
Размер потока                            : 1,49 Гбайт (83%)
Библиотека кодирования                   : x264 core 146 r2538 121396c
Настройки программы                      : cabac=1 / ref=10 / deblock=1:-2:-3 / analyse=0x3:0x133 / me=umh / subme=11 / psy=1 / psy_rd=0.95:0.05 / mixed_ref=1 / me_range=64 / chroma_me=1 / trellis=2 / 8x8dct=1 / cqm=0 / deadzone=21,11 / fast_pskip=0 / chroma_qp_offset=-3 / threads=12 / lookahead_threads=3 / sliced_threads=0 / nr=0 / decimate=0 / interlaced=0 / bluray_compat=0 / constrained_intra=0 / bframes=10 / b_pyramid=2 / b_adapt=2 / b_bias=0 / direct=3 / weightb=1 / open_gop=0 / weightp=2 / keyint=250 / keyint_min=25 / scenecut=40 / intra_refresh=0 / rc_lookahead=40 / rc=2pass / mbtree=0 / bitrate=2216 / ratetol=1.0 / qcomp=0.60 / qpmin=0 / qpmax=69 / qpstep=4 / cplxblur=20.0 / qblur=0.5 / vbv_maxrate=50000 / vbv_bufsize=62500 / nal_hrd=none / filler=0 / ip_ratio=1.40 / pb_ratio=1.30 / aq=1:1.00
Язык                                     : Russian
Default                                  : Да
Forced                                   : Нет

Аудио
Идентификатор                            : 2
Формат                                   : AC-3
Формат/Информация                        : Audio Coding 3
Идентификатор кодека                     : A_AC3
Продолжительность                        : 1 ч. 38 м.
Вид битрейта                             : Постоянный
Битрейт                                  : 384 Кбит/сек
Каналы                                   : 6 каналов
Расположение каналов                     : Front: L C R, Side: L R, LFE
Частота                                  : 48,0 КГц
Частота кадров                           : 31,250 кадров/сек (1536 SPF)
Битовая глубина                          : 16 бит
Метод сжатия                             : С потерями
Размер потока                            : 271 Мбайт (15%)
Заголовок                                : iTunes
Язык                                     : Russian
Service kind                             : Complete Main
Default                                  : Да
Forced                                   : Нет

Меню
00:00:00.000                             : ru:Chapter 01
00:08:00.800                             : ru:Chapter 02
00:16:21.200                             : ru:Chapter 03
00:25:05.599                             : ru:Chapter 04
00:34:07.799                             : ru:Chapter 05
00:43:04.879                             : ru:Chapter 06
00:51:35.918                             : ru:Chapter 07
00:59:52.638                             : ru:Chapter 08
01:08:21.157                             : ru:Chapter 09
01:16:28.310                             : ru:Chapter 10
01:25:07.515                             : ru:Chapter 11




Скриншоты:
[+] Всего файлов в раздаче - 1:
Van.Gogi.2018.x264.WEB-DLRip.(AVC).OlLanDGroup.mkv1.79 GB

Похожие раздачи по запросу - гоги:
2019-04-10 U Ван Гоги (2018) WEB-DLRip от Scarabey | iTunes 1.45 GB ↑ 28 ↓ 8
2019-04-08 U Ван Гоги (2018) WEB-DLRip от MegaPeer | iTunes 747.22 MB ↑ 49 ↓ 6
2019-04-07 U Ван Гоги (2018) WEB-DLRip | iTunes 1.46 GB ↑ 102 ↓ 54
2019-04-07 U Ван Гоги (2018) WEB-DLRip от GeneralFilm | iTunes 745.54 MB ↑ 156 ↓ 31
2019-04-07 U Ван Гоги (2018) WEB-DL 1080p | iTunes 3.85 GB ↑ 316 ↓ 187

Отзывы
Зарегистрируйтесь чтобы добавить комментарий.
Обратная связь
Copyleft ©