↑↓Torrent.by
Поиск
Логин: Регистрация
Пароль: Восстановить пароль
Загрузка...

Тридцатого уничтожить! (1992) DVDRip-AVC от KORSAR

Скачать tridcatogo-unichtozhit-1992-dvdrip-avc-ot-korsar.torrent
U Магнитная ссылка Размер: 2.86 GB Раздают: 65 Качают: 28 Добавлен: 2019-04-09 08:55:40
Тридцатого уничтожить! (1992) DVDRip-AVC от KORSAR

Тридцатого уничтожить!

Жанр:  Боевик
Год выпуска: 1992
Режиссер: Виктор Доценко
В ролях: Игорь Ливанов, Аристарх Ливанов, Марина Зудина, Станислав Садальский, Леонид Куравлев, Александр Пороховщиков, Владимир Ивашов, Николай Бармин

О фильме:
«Рэкс» был тяжело ранен в Афганистане, попал в плен, бежал чудом, жил в тибетском монастыре. Несколько лет шатался он по свету и, наконец, вернулся домой. Но мирной работы для него в Москве не нашлось.Он завербовался инструктором в среднеазиатский военный лагерь тайной организации, рвущейся к власти. Завербованные практически становятся пленниками и получают номера вместо имен. Так он стал «тридцатым».Узнав тайну, ставящую под угрозу существование организации, Рэкс и его брат, бывший капитан спецназа, бегут, похитив ценную информацию.

Страна: Россия
Производство: Мосфильм, Ганемфильм
Продолжительность: 02:03:00
Перевод: Не требуется

Качество: DVDRip (AVC)
Видео: MPEG-4 AVC, 694x568@740x568, 25 fps, 2884 Кбит/с
Аудио: Русский, AC3, 6 ch, 448 Кбит/с
Cубтитры: нет
Навигация по главам: нет

Релиз от: Cthulhu


[+] Mediainfo
x264 [info]: frame I:1058  Avg QP:17.48  size: 49569
x264 [info]: frame P:36885 Avg QP:18.89  size: 28351
x264 [info]: frame B:146557 Avg QP:20.84  size: 10663
x264 [info]: consecutive B-frames:  1.2%  1.5%  5.4% 12.6% 19.6% 51.9%  5.7%  0.9%  0.6%  0.6%  0.0%  0.1%  0.0%

General
Unique ID                                : 70787766144720032865717835861909388639 (0x35413A5478D1FDB71556114F01093D5F)
Complete name                            : S:FILMSТридцатого уничтожить! (1992) DVDRip-AVC - KORSAR.mkv
Format                                   : Matroska
Format version                           : Version 4 / Version 2
File size                                : 2.86 GiB
Duration                                 : 2 h 3 min
Overall bit rate                         : 3 334 kb/s
Movie name                               : Тридцатого уничтожить! (1992)_rip_by_Cthulhu
Encoded date                             : UTC 2019-04-06 14:32:16
Writing application                      : mkvmerge v28.2.0 ('The Awakening') 64-bit
Writing library                          : libebml v1.3.6 + libmatroska v1.4.9
Cover                                    : Yes
Attachments                              : cover.jpg

Video
ID                                       : 1
Format                                   : AVC
Format/Info                              : Advanced Video Codec
Format profile                           : High@L4.1
Format settings, CABAC                   : Yes
Format settings, RefFrames               : 15 frames
Codec ID                                 : V_MPEG4/ISO/AVC
Duration                                 : 2 h 3 min
Bit rate                                 : 2 884 kb/s
Width                                    : 694 pixels
Height                                   : 568 pixels
Display aspect ratio                     : 4:3
Frame rate mode                          : Constant
Frame rate                               : 25.000 FPS
Color space                              : YUV
Chroma subsampling                       : 4:2:0
Bit depth                                : 8 bits
Scan type                                : Progressive
Bits/(Pixel*Frame)                       : 0.293
Stream size                              : 2.48 GiB (87%)
Writing library                          : x264 core 152 r2851kMod ba24899
Encoding settings                        : cabac=1 / ref=15 / deblock=1:-2:-1 / analyse=0x3:0x133 / me=umh / subme=11 / psy=1 / fade_compensate=0.00 / psy_rd=1.00:0.05 / mixed_ref=1 / me_range=48 / chroma_me=1 / trellis=2 / 8x8dct=1 / cqm=0 / deadzone=21,11 / fast_pskip=1 / chroma_qp_offset=-3 / threads=18 / lookahead_threads=4 / sliced_threads=0 / nr=0 / decimate=1 / interlaced=0 / bluray_compat=0 / constrained_intra=0 / bframes=12 / b_pyramid=2 / b_adapt=2 / b_bias=0 / direct=3 / weightb=1 / open_gop=0 / weightp=2 / keyint=250 / keyint_min=25 / scenecut=40 / intra_refresh=0 / rc_lookahead=60 / rc=crf / mbtree=0 / crf=18.0000 / qcomp=0.60 / qpmin=0 / qpmax=39 / qpstep=4 / vbv_maxrate=50000 / vbv_bufsize=62500 / crf_max=0.0 / nal_hrd=none / filler=0 / ip_ratio=1.40 / pb_ratio=1.30 / aq=2:1.00
Language                                 : Russian
Default                                  : Yes
Forced                                   : No
Color range                              : Limited
Color primaries                          : BT.601 PAL
Transfer characteristics                 : BT.470 System B, BT.470 System G
Matrix coefficients                      : BT.601

Audio
ID                                       : 2
Format                                   : AC-3
Format/Info                              : Audio Coding 3
Mode extension                           : CM (complete main)
Format settings, Endianness              : Big
Codec ID                                 : A_AC3
Duration                                 : 2 h 2 min
Bit rate mode                            : Constant
Bit rate                                 : 448 kb/s
Channel(s)                               : 6 channels
Channel positions                        : Front: L C R, Side: L R, LFE
Sampling rate                            : 48.0 kHz
Frame rate                               : 31.250 FPS (1536 spf)
Compression mode                         : Lossy
Stream size                              : 394 MiB (13%)
Language                                 : Russian
Default                                  : Yes
Forced                                   : No



Скриншоты:
[+] Всего файлов в раздаче - 1:
Тридцатого уничтожить! (1992) DVDRip-AVC - KORSAR.mkv2.86 GB

Отзывы
Зарегистрируйтесь чтобы добавить комментарий.
Обратная связь
Copyleft ©