↑↓Torrent.by
Поиск
Логин: Регистрация
Пароль: Восстановить пароль
Загрузка...

Добро пожаловать в Акапулько / Welcome to Acapulco (2019) WEB-DL 1080p от ExKinoRay | HDRezka Studio

Скачать dobro-pozhalovat-v-akapulko-welcome-to-acapulco-2019-web-dl-1080p-ot-exkinoray-hdrezka-studio.torrent
U Магнитная ссылка Размер: 3.19 GB Раздают: 124 Качают: 61 Добавлен: 2019-04-09 11:46:20
Добро пожаловать в Акапулько / Welcome to Acapulco (2019) WEB-DL 1080p от ExKinoRay | HDRezka Studio

Название: Добро пожаловать в Акапулько
Оригинальное название: Welcome to Acapulco
Год выпуска: 2019
Жанр:  Боевик, триллер, комедия
Режиссер: Гильермо Иван
В ролях: Уильям Болдуин, Майкл Мэдсен, Брэдли Грегг, Ана Серрадилья, Майкл Кингсбэйкер, Анна Лаевская, Гильермо Иван, Зэк Роуз, Гильермо Гарсия, Мария Елена Эредия, Освальдо де Леон

Описание:   У разработчика компьютерных игр Мэтта Бута есть один шанс спасти свою карьеру, представив свой самый крупный проект на церемонии вручения наград в американском Нью-Мексико. Но весело отметив встречу с приятелем в аэропорту, он оказывается в мексиканском городе Акапулько. После приземления Мэтт оказывается объектом охоты преступников, киллеров и федералов, ищущих таинственный пакет, который он якобы провез через таможню, но о котором ничего не знает. Объединившись с роковой красоткой и выпустив на волю своего «внутреннего экшен героя», он раскрывает заговор, который может потрясти все Соединенные Штаты, а возможно, и целый мир.

Выпущено: Болгария, Мексика, США, Open Frames, Golden Ceiba Productions, Global Group
Продолжительность: 01:28:59
Перевод: Профессиональный (многоголосый, закадровый) | HDRezka Studio
Субтитры: Английские

БЕЗ КАКОЙ-ЛИБО РЕКЛАМЫ!

Формат: MKV
Качество: WEB-DL 1080p
Видео: MPEG-4 AVC, 1920x804 (2.40:1), 23.976 fps, 4450 Kbps, 0.120 bit/pixel
Аудио 1: 48 kHz, AC3, 2.0, 192 Kbps | MVO | RUS |
Аудио 2: 48 kHz, AC3, 5.1, 384 Kbps | Оригинал |  ENG |

Релиз:

Автор релиза:


[+] ОтчетМедиаИнфо
General
Unique ID                                : 253549781716879200889978254459121279446 (0xBEBFE9652E26982895D43EE18621A1D6)
Complete name                            : F:hdrezkaWelcome.to.Acapulco.2019.MVO.1080p.WEB-DL.ExKinoRay.mkv
Format                                   : Matroska
Format version                           : Version 2
File size                                : 3.19 GiB
Duration                                 : 1 h 28 min
Overall bit rate                         : 5 128 kb/s
Movie name                               : Welcome to Acapulco 2019 from ExKinoRay
Encoded date                             : UTC 2019-04-09 02:54:08
Writing application                      : mkvmerge v5.6.0 ('Kenya Kane') built on May 27 2012 16:44:04
Writing library                          : libebml v1.2.3 + libmatroska v1.3.0

Video
ID                                       : 1
Format                                   : AVC
Format/Info                              : Advanced Video Codec
Format profile                           : High@L4
Format settings, CABAC                   : Yes
Format settings, ReFrames                : 5 frames
Codec ID                                 : V_MPEG4/ISO/AVC
Duration                                 : 1 h 28 min
Bit rate                                 : 4 450 kb/s
Width                                    : 1 920 pixels
Height                                   : 804 pixels
Display aspect ratio                     : 2.40:1
Frame rate mode                          : Constant
Frame rate                               : 23.976 (24000/1001) FPS
Color space                              : YUV
Chroma subsampling                       : 4:2:0
Bit depth                                : 8 bits
Scan type                                : Progressive
Bits/(Pixel*Frame)                       : 0.120
Stream size                              : 2.77 GiB (87%)
Title                                    : Welcome.to.Acapulco.2019.1080p
Language                                 : English
Default                                  : Yes
Forced                                   : No
Color range                              : Limited
Color primaries                          : BT.709
Transfer characteristics                 : BT.709
Matrix coefficients                      : BT.709

Audio #1
ID                                       : 2
Format                                   : AC-3
Format/Info                              : Audio Coding 3
Mode extension                           : CM (complete main)
Format settings, Endianness              : Big
Codec ID                                 : A_AC3
Duration                                 : 1 h 28 min
Bit rate mode                            : Constant
Bit rate                                 : 192 kb/s
Channel(s)                               : 2 channels
Channel positions                        : Front: L R
Sampling rate                            : 48.0 kHz
Frame rate                               : 31.250 FPS (1536 spf)
Compression mode                         : Lossy
Delay relative to video                  : -42 ms
Stream size                              : 122 MiB (4%)
Title                                    : MVO (HDRezka Studio)
Language                                 : Russian
Default                                  : No
Forced                                   : No

Audio #2
ID                                       : 3
Format                                   : AC-3
Format/Info                              : Audio Coding 3
Mode extension                           : CM (complete main)
Format settings, Endianness              : Big
Codec ID                                 : A_AC3
Duration                                 : 1 h 28 min
Bit rate mode                            : Constant
Bit rate                                 : 384 kb/s
Channel(s)                               : 6 channels
Channel positions                        : Front: L C R, Side: L R, LFE
Sampling rate                            : 48.0 kHz
Frame rate                               : 31.250 FPS (1536 spf)
Compression mode                         : Lossy
Delay relative to video                  : -42 ms
Stream size                              : 244 MiB (7%)
Title                                    : Original
Language                                 : English
Default                                  : No
Forced                                   : No

Text
ID                                       : 4
Format                                   : UTF-8
Codec ID                                 : S_TEXT/UTF8
Codec ID/Info                            : UTF-8 Plain Text
Language                                 : English
Default                                  : No
Forced                                   : No

Menu
00:00:00.000                             : en:Chapter 1
00:09:52.801                             : en:Chapter 2
00:18:24.187                             : en:Chapter 3
00:27:02.580                             : en:Chapter 4
00:36:52.419                             : en:Chapter 5
00:45:51.958                             : en:Chapter 6
00:53:44.972                             : en:Chapter 7
01:03:03.030                             : en:Chapter 8
01:11:51.892                             : en:Chapter 9
01:20:33.330                             : en:Chapter 10
01:24:37.282                             : en:Chapter 11




Скриншоты:
[+] Всего файлов в раздаче - 1:
Welcome.to.Acapulco.2019.MVO.1080p.WEB-DL.ExKinoRay.mkv3.19 GB

Показать еще раздачи по запросу добро:
2019-04-09 U Добро пожаловать в Акапулько / Welcome to Acapulco (2019) WEB-DLRip от Portablius | HDRezka Studio 741.83 MB ↑ 126 ↓ 31
2019-04-09 U Добро пожаловать в Акапулько / Welcome to Acapulco (2019) WEB-DLRip от ExKinoRay | HDRezka Studio 1.37 GB ↑ 166 ↓ 72
2018-07-30 U Добро пожаловать в Zомбилэнд / Zombieland (2009) WEB-DL 1080p | D, A | Open Matte 2К9.51 GB ↑ 106 ↓ 8
2018-05-27 U Stellaris: Galaxy Edition [v 2.1.0 + DLC's] (2016) PC | RePack от Добро 6.58 GB ↑ 411 ↓ 39
2018-05-20 U Добро пожаловать, или Посторонним вход воспрещен (1964) BDRemux 1080p | Реставрация 14.62 GB ↑ 46 ↓ 29
2018-05-05 U Добро пожаловать в Уиллитс / Welcome to Willits (2016) HDRip | GreenРай Studio 1.37 GB ↑ 23 ↓ 10
2018-03-19 U Добро пожаловать, незнакомец / Welcome the Stranger (2018) WEB-DLRip от MegaPeer | iTunes 1.45 GB ↑ 101 ↓ 71

Отзывы
Зарегистрируйтесь чтобы добавить комментарий.
Обратная связь
Copyleft ©