↑↓Torrent.by
Поиск
Логин: Регистрация
Пароль: Восстановить пароль
Загрузка...

Стекло / Glass (2019) BDRip-AVC от OlLanDGroup | HDRezka Studio

Скачать steklo-glass-2019-bdrip-avc-ot-ollandgroup-hdrezka-studio.torrent
U Магнитная ссылка Размер: 2.16 GB Раздают: 1094 Качают: 248 Добавлен: 2019-04-09 20:40:59
Стекло / Glass (2019) BDRip-AVC от OlLanDGroup | HDRezka Studio

Стекло / Glass
«Дай волю своим демонам»

Год выпуска: 2019
Страна: США
Производство: Walt Disney Pictures, Universal Pictures, Blinding Edge Pictures
Жанр:  Фантастика, триллер, драма, детектив

Режиссёр: М. Найт Шьямалан
В ролях: Джеймс МакЭвой, Брюс Уиллис, Сэмюэл Л. Джексон, Сара Полсон, Аня Тейлор-Джой, Спенсер Трит Кларк, Чарлэйн Вудард, Люк Кирби, Адам Дэвид Томпсон, М. Найт Шьямалан, Шеннон Дестини Райан, Диана Сильверс, Нина Уиснер, Серж Диденко, Джейн Парк Смит, Кайли Зион, Расселл Познер, Кимберли С. Фербенкс

Перевод: Профессиональный многоголосый | [HDRezka Studio]
Субтитры: Английские (полные, SDH)
Реклама: Отсутствует

Описание: В поисках встречи с обладающим фантастическими способностями и снова убивающем девушек Зверем Дэвид Данн выходит на след Кевина Крамба. Но решающая схватка не успевает состояться, героев ловят и отправляют в психиатрическую больницу. Там уже содержится хрупкий человек Элайджа Прайс, несколько лет назад устроивший крушение поезда, единственным выжившем в котором оказался Дэвид. Психиатр Элли Стэйпл пытается убедить этих трёх пациентов, что они не обладают сверхспособностями, и всему можно найти рациональное объяснение

Качество: BDRip-AVC | BDRemux | Glass 2019 1080p BluRay REMUX AVC Atmos TrueHD7 1-iFT
Продолжительность: 02:09:01

Формат: MKV
Видео кодек: MPEG-4 AVC
Аудио кодек: AC3
Видео: 1024x428 (2.40:1), 23,976 fps, x264 ~1 785 kbps avg, 0.170 bit/pixel
Аудио #1: 48 kHz, AC3 Dolby Digital, 2 (L,R) ch, ~192.00 kbps avg | RUS (HDRezka Studio)
Аудио #2: 48 kHz, AC3 Dolby Digital, 3/2 (L,C,R,l,r) + LFE ch, ~448.00 kbps avg | ENG

Дата премьеры (мир): 7 января 2019
Дата премьеры (РФ): 17 января 2019, «WDSSPR»
Цифровой релиз: 16 апреля 2019, «Уолт Дисней Компани СНГ»

Релиз:


[+] MediaInfo

Общее
Уникальный идентификатор                 : 203359837875520107785890007829422298940 (0x98FDAE1CAC5D1EF1EFD80E755E8C573C)
Полное имя                               : F:OlLanDGroupGlass.2019.BDRip(AVC).OlLanDGroup.mkv
Формат                                   : Matroska
Версия формата                           : Version 4 / Version 2
Размер файла                             : 2,16 Гбайт
Продолжительность                        : 2 ч. 9 м.
Общий поток                              : 2401 Кбит/сек
Название фильма                          : Glass (2019)   #TorpedoUK#
Дата кодирования                         : UTC 2019-04-09 14:10:36
Программа кодирования                    : mkvmerge v29.0.0 ('Like It Or Not') 64-bit
Библиотека кодирования                   : libebml v1.3.6 + libmatroska v1.4.9

Видео
Идентификатор                            : 1
Формат                                   : AVC
Формат/Информация                        : Advanced Video Codec
Профиль формата                          : High@L4.1
Параметр CABAC формата                   : Да
Параметр ReFrames формата                : 10 кадров
Идентификатор кодека                     : V_MPEG4/ISO/AVC
Продолжительность                        : 2 ч. 9 м.
Битрейт                                  : 1775 Кбит/сек
Ширина                                   : 1024 пикселя
Высота                                   : 428 пикселей
Соотношение сторон                       : 2,40:1
Режим частоты кадров                     : Постоянный
Частота кадров                           : 23,976 (24000/1001) кадра/сек
Цветовое пространство                    : YUV
Субдискретизация насыщенности            : 4:2:0
Битовая глубина                          : 8 бит
Тип развёртки                            : Прогрессивная
Бит/(Пиксели*Кадры)                      : 0.169
Размер потока                            : 1,60 Гбайт (74%)
Библиотека кодирования                   : x264 core 146 r2538 121396c
Настройки программы                      : cabac=1 / ref=10 / deblock=1:-3:-3 / analyse=0x3:0x113 / me=umh / subme=11 / psy=1 / psy_rd=1.00:0.03 / mixed_ref=1 / me_range=48 / chroma_me=1 / trellis=2 / 8x8dct=1 / cqm=0 / deadzone=21,11 / fast_pskip=1 / chroma_qp_offset=-3 / threads=6 / lookahead_threads=1 / sliced_threads=0 / nr=0 / decimate=1 / interlaced=0 / bluray_compat=0 / constrained_intra=0 / bframes=11 / b_pyramid=2 / b_adapt=2 / b_bias=0 / direct=3 / weightb=1 / open_gop=0 / weightp=2 / keyint=240 / keyint_min=23 / scenecut=40 / intra_refresh=0 / rc_lookahead=40 / rc=2pass / mbtree=0 / bitrate=1775 / ratetol=1.0 / qcomp=0.60 / qpmin=0 / qpmax=69 / qpstep=4 / cplxblur=20.0 / qblur=0.5 / vbv_maxrate=50000 / vbv_bufsize=62500 / nal_hrd=none / filler=0 / ip_ratio=1.40 / pb_ratio=1.30 / aq=1:1.00
Язык                                     : English
Default                                  : Да
Forced                                   : Нет

Аудио #1
Идентификатор                            : 2
Формат                                   : AC-3
Формат/Информация                        : Audio Coding 3
Расширение режима                        : CM (complete main)
Параметр Endianness формата              : Big
Идентификатор кодека                     : A_AC3
Продолжительность                        : 2 ч. 9 м.
Вид битрейта                             : Постоянный
Битрейт                                  : 192 Кбит/сек
Каналы                                   : 2 канала
Расположение каналов                     : Front: L R
Частота                                  : 48,0 КГц
Частота кадров                           : 31,250 кадров/сек (1536 spf)
Битовая глубина                          : 16 бит
Метод сжатия                             : С потерями
Размер потока                            : 177 Мбайт (8%)
Заголовок                                : MVO [HDRezka Studio]
Язык                                     : Russian
Default                                  : Да
Forced                                   : Нет

Аудио #2
Идентификатор                            : 3
Формат                                   : AC-3
Формат/Информация                        : Audio Coding 3
Расширение режима                        : CM (complete main)
Параметр Endianness формата              : Big
Идентификатор кодека                     : A_AC3
Продолжительность                        : 2 ч. 4 м.
Вид битрейта                             : Постоянный
Битрейт                                  : 448 Кбит/сек
Каналы                                   : 6 каналов
Расположение каналов                     : Front: L C R, Side: L R, LFE
Частота                                  : 48,0 КГц
Частота кадров                           : 31,250 кадров/сек (1536 spf)
Битовая глубина                          : 16 бит
Метод сжатия                             : С потерями
Размер потока                            : 398 Мбайт (18%)
Заголовок                                : [Original]
Язык                                     : English
Default                                  : Нет
Forced                                   : Нет

Текст #1
Идентификатор                            : 4
Формат                                   : UTF-8
Идентификатор кодека                     : S_TEXT/UTF8
Идентификатор кодека/Информация          : UTF-8 Plain Text
Продолжительность                        : 2 ч. 1 м.
Битрейт                                  : 43 бит/сек
Count of elements                        : 1201
Размер потока                            : 38,8 Кбайт (0%)
Заголовок                                : Full
Язык                                     : English
Default                                  : Нет
Forced                                   : Нет

Текст #2
Идентификатор                            : 5
Формат                                   : UTF-8
Идентификатор кодека                     : S_TEXT/UTF8
Идентификатор кодека/Информация          : UTF-8 Plain Text
Продолжительность                        : 2 ч. 2 м.
Битрейт                                  : 52 бит/сек
Count of elements                        : 1565
Размер потока                            : 46,8 Кбайт (0%)
Заголовок                                : SDH
Язык                                     : English
Default                                  : Нет
Forced                                   : Нет

Меню
00:00:00.000                             : en:Chapter 1
00:04:08.457                             : en:Chapter 2
00:09:36.367                             : en:Chapter 3
00:14:30.078                             : en:Chapter 4
00:19:49.897                             : en:Chapter 5
00:24:41.063                             : en:Chapter 6
00:29:45.826                             : en:Chapter 7
00:35:00.598                             : en:Chapter 8
00:39:07.595                             : en:Chapter 9
00:47:28.220                             : en:Chapter 10
00:57:16.224                             : en:Chapter 11
01:02:55.271                             : en:Chapter 12
01:09:26.829                             : en:Chapter 13
01:14:30.299                             : en:Chapter 14
01:21:43.774                             : en:Chapter 15
01:30:10.530                             : en:Chapter 16
01:38:15.515                             : en:Chapter 17
01:44:08.742                             : en:Chapter 18
01:54:07.215                             : en:Chapter 19
02:03:00.290                             : en:Chapter 20



Скриншоты:
[+] Всего файлов в раздаче - 1:
Glass.2019.BDRip(AVC).OlLanDGroup.mkv2.16 GB

Показать еще раздачи по запросу стекло:
2019-04-18 U Стекло / Glass (2019) BDRip 720p от Scarabey | iTunes 5.30 GB ↑ 31 ↓ 16
2019-04-18 U Стекло / Glass (2019) HDRip от Scarabey | iTunes 1.48 GB ↑ 42 ↓ 13
2019-04-17 U Стекло / Glass (2019) BDRip-AVC от HELLYWOOD | iTunes 1.41 GB ↑ 156 ↓ 92
2019-04-17 U Стекло / Glass (2019) HDRip от Scarabey | iTunes 794.94 MB ↑ 48 ↓ 25
2019-04-16 U Стекло / Glass (2019) BDRip 1080p от qqss44 & MegaPeer | iTunes 7.69 GB ↑ 32 ↓ 129
2019-04-16 U Стекло / Glass (2019) BDRemux 1080p от селезень | iTunes 31.11 GB ↑ 52 ↓ 67
2019-04-16 U Стекло / Glass (2019) BDRip от Twister & ExKinoRay | iTunes 1.46 GB ↑ 134 ↓ 11

Отзывы
Зарегистрируйтесь чтобы добавить комментарий.
Обратная связь
Copyleft ©