↑↓Torrent.by
Поиск
Логин: Регистрация
Пароль: Восстановить пароль
Загрузка...

Лови момент (2019) WEB-DLRip от GeneralFilm | iTunes

Скачать lovi-moment-2019-web-dlrip-ot-generalfilm-itunes.torrent
U Магнитная ссылка Размер: 744.36 MB Раздают: 204 Качают: 89 Добавлен: 2019-04-09 20:41:09
Лови момент (2019) WEB-DLRip от GeneralFilm | iTunes

Оригинальное название: Лови момент
Год выпуска: 2019
Жанр:  Комедия
Выпущено: Россия, РВВ Фильм, Новые телеканалы
Режиссер: Антонина Руже
В ролях: Юлия Топольницкая, Алексей Кортнев, Юрий Быков, Валерия Федорович, Юлия Сулес, Михаил Тарабукин, Ольга Кузьмина, Ингрид Олеринская, Валерия Дергилева, Алексей Весёлкин

О фильме: Главная героиня — милая амбициозная девушка Рита из провинциального городка на черноморском побережье. Она решает вырваться из рутины ведения местных свадеб и утренников и приезжает покорять столицу, пытаясь поступить в театральное училище. Её ждёт много сложных испытаний, которые порой превращаются в очень комичные истории...

Качество: WEB-DLRip
Видео: XviD build 73, 720x304 (2.37:1), 24.000 fps, 1225 Kbps (0.233 bit/pixel)
Аудио: 48.0 kHz, MP3 2ch, 128 kbps
Продолжительность: 01:16:23
Перевод: Не требуется [Русский]
Cубтитры: нет

Релиз:


[+] MediaInfo

General
Complete name               : D:RazdachiLovi.Moment.2019.WEB-DLRip.GeneralFilm.avi
Format                      : AVI
Format/Info                 : Audio Video Interleave
File size                   : 744 MiB
Duration                    : 1 h 16 min
Overall bit rate            : 1 362 kb/s
Writing application         : VirtualDubMod 1.5.10.3 | www.virtualdub-fr.org || (build 2550/release)
Writing library             : VirtualDubMod build 2550/release

Video
ID                          : 0
Format                      : MPEG-4 Visual
Format profile              : Advanced Simple@L5
Format settings             : BVOP1 / Custom Matrix
Format settings, BVOP       : 1
Format settings, QPel       : No
Format settings, GMC        : No warppoints
Format settings, Matrix     : Custom
Codec ID                    : XVID
Codec ID/Hint               : XviD
Duration                    : 1 h 16 min
Bit rate                    : 1 225 kb/s
Width                       : 720 pixels
Height                      : 304 pixels
Display aspect ratio        : 2.35:1
Frame rate                  : 24.000 FPS
Color space                 : YUV
Chroma subsampling          : 4:2:0
Bit depth                   : 8 bits
Scan type                   : Progressive
Compression mode            : Lossy
Bits/(Pixel*Frame)          : 0.233
Stream size                 : 669 MiB (90%)
Writing library             : XviD 73

Audio
ID                          : 1
Format                      : MPEG Audio
Format version              : Version 1
Format profile              : Layer 3
Codec ID                    : 55
Codec ID/Hint               : MP3
Duration                    : 1 h 16 min
Bit rate mode               : Constant
Bit rate                    : 128 kb/s
Channel(s)                  : 2 channels
Sampling rate               : 48.0 kHz
Frame rate                  : 41.667 FPS (1152 SPF)
Compression mode            : Lossy
Stream size                 : 69.9 MiB (9%)
Alignment                   : Aligned on interleaves
Interleave, duration        : 42  ms (1.00 video frame)
Interleave, preload duratio : 504  ms
Writing library             : LAME3.99r
Encoding settings           : -m s -V 4 -q 2 -lowpass 17 -b 128



Скриншоты:
[+] Всего файлов в раздаче - 1:
Lovi.Moment.2019.WEB-DLRip.GeneralFilm.avi744.36 MB

Похожие раздачи по запросу - лови:
2019-04-15 U Лови момент (2019) WEB-DLRip | iTunes 1.46 GB ↑ 109 ↓ 33
2019-04-10 U Лови момент (2019) WEB-DLRip-AVC от Files-x | iTunes 1.37 GB ↑ 197 ↓ 77
2019-04-09 U Лови момент (2019) WEB-DL 1080p | iTunes 2.64 GB ↑ 505 ↓ 276
2017-03-07 U Лови волну 2 / Surf's Up 2: WaveMania (2017) WEB-DLRip от MegaPeer | iTunes 747.29 MB ↑ 291 ↓ 25
2017-03-07 U Лови волну 2 / Surf's Up 2: WaveMania (2017) WEB-DL 1080p | iTunes 1К3.54 GB ↑ 451 ↓ 447
2017-03-07 U Лови волну 2 / Surf's Up 2: WaveMania (2017) WEB-DLRip от MegaPeer | iTunes 1К1.46 GB ↑ 506 ↓ 452

Отзывы
Зарегистрируйтесь чтобы добавить комментарий.
Обратная связь
Copyleft ©