↑↓Torrent.by
Поиск
Логин: Регистрация
Пароль: Восстановить пароль
Загрузка...

Добро пожаловать в Акапулько / Welcome to Acapulco (2019) WEB-DLRip от Portablius | HDRezka Studio

Скачать dobro-pozhalovat-v-akapulko-welcome-to-acapulco-2019-web-dlrip-ot-portablius-hdrezka-studio.torrent
U Магнитная ссылка Размер: 741.83 MB Раздают: 141 Качают: 33 Добавлен: 2019-04-09 20:41:18
Добро пожаловать в Акапулько / Welcome to Acapulco (2019) WEB-DLRip от Portablius | HDRezka Studio

Название: Добро пожаловать в Акапулько
Оригинальное название: Welcome to Acapulco
Год выхода: 2019
Жанр: Боевик, триллер, комедия
Режиссер: Гильермо Иван
В ролях: Уильям Болдуин, Майкл Мэдсен, Брэдли Грегг, Ана Серрадилья, Майкл Кингсбэйкер, Анна Лаевская, Гильермо Иван, Зэк Роуз, Гильермо Гарсия, Мария Елена Эредия, Освальдо де Леон

О фильме: У разработчика компьютерных игр Мэтта Бута есть один шанс спасти свою карьеру, представив свой самый крупный проект на церемонии вручения наград в американском Нью-Мексико. Но весело отметив встречу с приятелем в аэропорту, он оказывается в мексиканском городе Акапулько. После приземления Мэтт оказывается объектом охоты преступников, киллеров и федералов, ищущих таинственный пакет, который он якобы провез через таможню, но о котором ничего не знает. Объединившись с роковой красоткой и выпустив на волю своего «внутреннего экшен героя», он раскрывает заговор, который может потрясти все Соединенные Штаты, а возможно, и целый мир.

Страна: Болгария, Мексика, США
Студия: Open Frames, Golden Ceiba Productions, Global Group
Продолжительность: 01:28:59
Перевод: Профессиональный (многоголосый, закадровый) | HDRezka Studio
Субтитры: нет

Релиз Без Рекламы!

Файл
Кодек: XviD
Качество: WEB-DLRip
Видео: 688x288 (2.39:1), 23.976 fps, XviD build 73 ~1028 kbps avg, 0.22 bit/pixel
Звук: 48 kHz, MPEG Layer 3, 2 ch, ~128.00 kbps avg


[+] MediaInfo
General
Complete name               : Welcome.to.Acapulco.2019.WEB-DLRip.Portablius.avi
Format                      : AVI
Format/Info                 : Audio Video Interleave
File size                   : 742 MiB
Duration                    : 1 h 28 min
Overall bit rate            : 1 166 kb/s
Writing application         : VirtualDubMod 1.5.10.3 | www.virtualdub-fr.org || (build 2550/release)
Writing library             : VirtualDubMod build 2550/release

Video
ID                          : 0
Format                      : MPEG-4 Visual
Format profile              : Advanced Simple@L5
Format settings             : BVOP1 / Custom Matrix
Format settings, BVOP       : 1
Format settings, QPel       : No
Format settings, GMC        : No warppoints
Format settings, Matrix     : Custom
Codec ID                    : XVID
Codec ID/Hint               : XviD
Duration                    : 1 h 28 min
Bit rate                    : 1 028 kb/s
Width                       : 688 pixels
Height                      : 288 pixels
Display aspect ratio        : 2.40:1
Frame rate                  : 23.976 (24000/1001) FPS
Color space                 : YUV
Chroma subsampling          : 4:2:0
Bit depth                   : 8 bits
Scan type                   : Progressive
Compression mode            : Lossy
Bits/(Pixel*Frame)          : 0.216
Stream size                 : 654 MiB (88%)
Writing library             : XviD 73

Audio
ID                          : 1
Format                      : MPEG Audio
Format version              : Version 1
Format profile              : Layer 3
Codec ID                    : 55
Codec ID/Hint               : MP3
Duration                    : 1 h 28 min
Bit rate mode               : Constant
Bit rate                    : 128 kb/s
Channel(s)                  : 2 channels
Sampling rate               : 48.0 kHz
Frame rate                  : 41.667 FPS (1152 SPF)
Compression mode            : Lossy
Stream size                 : 81.5 MiB (11%)
Alignment                   : Aligned on interleaves
Interleave, duration        : 42  ms (1.00 video frame)
Interleave, preload duratio : 504  ms
Writing library             : LAME3.99r
Encoding settings           : -m s -V 4 -q 2 -lowpass 17 -b 128




Скриншоты:
[+] Всего файлов в раздаче - 1:
Welcome.to.Acapulco.2019.WEB-DLRip.Portablius.avi741.83 MB

Показать еще раздачи по запросу добро:
2019-04-09 U Добро пожаловать в Акапулько / Welcome to Acapulco (2019) WEB-DL 1080p от ExKinoRay | HDRezka Studio 3.19 GB ↑ 124 ↓ 61
2019-04-09 U Добро пожаловать в Акапулько / Welcome to Acapulco (2019) WEB-DLRip от ExKinoRay | HDRezka Studio 1.37 GB ↑ 186 ↓ 72
2018-07-30 U Добро пожаловать в Zомбилэнд / Zombieland (2009) WEB-DL 1080p | D, A | Open Matte 2К9.51 GB ↑ 187 ↓ 8
2018-05-27 U Stellaris: Galaxy Edition [v 2.1.0 + DLC's] (2016) PC | RePack от Добро 6.58 GB ↑ 418 ↓ 39
2018-05-20 U Добро пожаловать, или Посторонним вход воспрещен (1964) BDRemux 1080p | Реставрация 14.62 GB ↑ 58 ↓ 29
2018-05-05 U Добро пожаловать в Уиллитс / Welcome to Willits (2016) HDRip | GreenРай Studio 1.37 GB ↑ 23 ↓ 10
2018-03-19 U Добро пожаловать, незнакомец / Welcome the Stranger (2018) WEB-DLRip от MegaPeer | iTunes 1.45 GB ↑ 101 ↓ 71

Отзывы
Зарегистрируйтесь чтобы добавить комментарий.
Обратная связь
Copyleft ©