↑↓Torrent.by
Поиск
Логин: Регистрация
Пароль: Восстановить пароль
Загрузка...

Стекло / Glass (2019) BDRip 1080p | HDRezka Studio

Скачать steklo-glass-2019-bdrip-1080p-hdrezka-studio.torrent
U Магнитная ссылка Размер: 13.70 GB Раздают: 147 Качают: 69 Добавлен: 2019-04-10 05:50:56
Стекло / Glass (2019) BDRip 1080p | HDRezka Studio

Название: Стекло
Оригинальное название: Glass
Год выхода: 2019
Жанр: Фантастика, триллер, драма, детектив

Режиссер: М. Найт Шьямалан

В ролях: Джеймс МакЭвой, Брюс Уиллис, Сэмюэл Л. Джексон, Сара Полсон, Аня Тейлор-Джой, Спенсер Трит Кларк, Чарлэйн Вудард, Люк Кирби, Адам Дэвид Томпсон, М. Найт Шьямалан

О фильме:
В поисках встречи с обладающим фантастическими способностями и снова убивающем девушек Зверем Дэвид Данн выходит на след Кевина Крамба. Но решающая схватка не успевает состояться, наших героев ловят и отправляют в психиатрическую больницу. Там уже содержится хрупкий человек Элайджа Прайс, несколько лет устроивший крушение поезда, единственным выжившем в котором оказался Дэвид. Психиатр Элли Стэйпл пытается убедить этих трёх пациентов, что они не обладают сверхспособностями, и всему можно найти рациональное объяснение.

Страна: США
Продолжительность: 02:09:02
Перевод: Профессиональный многоголосый [HDRezka Studio]

Файл
Кодек: x.264
Качество: BDRip 1080p
Видео: AVC, 1920x804 (2.40:1), 23.976 fps, 13.3 Mb/s
Аудио 1: AC-3, 48.0 kHz, 2 ch, 192 kb/s | RUS (MVO, HDRezka Studio)
Аудио 2: AC-3, 48.0 kHz, 2 ch, 192 kb/s | UKR (DUB, Line)
Аудио 3: DTS, 48.0 kHz, 6 ch, 1 509 kb/s | ENG
Субтитры: Английские

09.04.19 Добавлена русская звуковая дорожка от HDRezka Studio


[+] MI
Общее
Уникальный идентификатор                 : 179690070614756176787285471788178469598 (0x872F0C7C3AEACFFFB038BC6E3A31F2DE)
Полное имя                               : Glass.2019.1080p.BDRip.Rus.Ukr.Eng.mkv
Формат                                   : Matroska
Версия формата                           : Version 4
Размер файла                             : 13,7 Гбайт
Продолжительность                        : 2 ч. 9 м.
Общий поток                              : 15,2 Мбит/сек
Дата кодирования                         : UTC 2019-04-09 18:42:35
Программа кодирования                    : mkvmerge v8.3.0 ('Over the Horizon') 64bit
Библиотека кодирования                   : libebml v1.3.1 + libmatroska v1.4.2

Видео
Идентификатор                            : 1
Формат                                   : AVC
Формат/Информация                        : Advanced Video Codec
Профиль формата                          : High@L4.1
Настройки формата                        : CABAC / 5 Ref Frames
Параметр CABAC формата                   : Да
Параметр RefFrames формата               : 5 кадров
Идентификатор кодека                     : V_MPEG4/ISO/AVC
Продолжительность                        : 2 ч. 9 м.
Битрейт                                  : 13,3 Мбит/сек
Ширина                                   : 1920 пикселей
Высота                                   : 804 пикселя
Соотношение сторон                       : 2,40:1
Режим частоты кадров                     : Постоянный
Частота кадров                           : 23,976 (24000/1001) кадра/сек
Цветовое пространство                    : YUV
Субдискретизация насыщенности            : 4:2:0
Битовая глубина                          : 8 бит
Тип развёртки                            : Прогрессивная
Бит/(Пиксели*Кадры)                      : 0.360
Размер потока                            : 12,0 Гбайт (88%)
Библиотека кодирования                   : x264 core 157 r2938 2b00a84 TnP@MTeam Mod
Настройки программы                      : cabac=1 / ref=5 / deblock=1:-3:-3 / analyse=0x3:0x133 / me=umh / subme=10 / psy=1 / psy_rd=1.05:0.00 / mixed_ref=1 / me_range=32 / chroma_me=1 / trellis=2 / 8x8dct=1 / cqm=0 / deadzone=21,11 / fast_pskip=0 / chroma_qp_offset=-2 / threads=12 / lookahead_threads=2 / sliced_threads=0 / nr=0 / decimate=0 / interlaced=0 / bluray_compat=0 / constrained_intra=0 / bframes=8 / b_pyramid=2 / b_adapt=2 / b_bias=0 / direct=3 / weightb=1 / open_gop=0 / weightp=2 / keyint=250 / keyint_min=24 / scenecut=40 / intra_refresh=0 / rc_lookahead=250 / rc=crf / mbtree=0 / crf=15.5 / qcomp=0.60 / qpmin=0 / qpmax=69 / qpstep=4 / vbv_maxrate=62500 / vbv_bufsize=78125 / crf_max=0.0 / nal_hrd=none / filler=0 / ip_ratio=1.30 / pb_ratio=1.20 / aq=3:0.80
Язык                                     : English
Default                                  : Да
Forced                                   : Нет
Цветовой диапазон                        : Limited
Основные цвета                           : BT.709
Коэффициенты матрицы                     : BT.709

Аудио #1
Идентификатор                            : 2
Формат                                   : AC-3
Формат/Информация                        : Audio Coding 3
Коммерческое название                    : Dolby Digital
Идентификатор кодека                     : A_AC3
Продолжительность                        : 2 ч. 9 м.
Вид битрейта                             : Постоянный
Битрейт                                  : 192 Кбит/сек
Каналы                                   : 2 канала
Channel layout                           : L R
Частота                                  : 48,0 КГц
Частота кадров                           : 31,250 кадров/сек (1536 SPF)
Битовая глубина                          : 16 бит
Метод сжатия                             : С потерями
Размер потока                            : 177 Мбайт (1%)
Заголовок                                : MVO [HDRezka Studio]
Язык                                     : Russian
Default                                  : Да
Forced                                   : Нет

Аудио #2
Идентификатор                            : 3
Формат                                   : AC-3
Формат/Информация                        : Audio Coding 3
Коммерческое название                    : Dolby Digital
Идентификатор кодека                     : A_AC3
Продолжительность                        : 2 ч. 9 м.
Вид битрейта                             : Постоянный
Битрейт                                  : 192 Кбит/сек
Каналы                                   : 2 канала
Channel layout                           : L R
Частота                                  : 48,0 КГц
Частота кадров                           : 31,250 кадров/сек (1536 SPF)
Битовая глубина                          : 16 бит
Метод сжатия                             : С потерями
Размер потока                            : 177 Мбайт (1%)
Заголовок                                : DUB [Line]
Язык                                     : Ukrainian
Default                                  : Нет
Forced                                   : Нет

Аудио #3
Идентификатор                            : 4
Формат                                   : DTS
Формат/Информация                        : Digital Theater Systems
Идентификатор кодека                     : A_DTS
Продолжительность                        : 2 ч. 9 м.
Вид битрейта                             : Постоянный
Битрейт                                  : 1509 Кбит/сек
Каналы                                   : 6 каналов
Channel layout                           : C L R Ls Rs LFE
Частота                                  : 48,0 КГц
Частота кадров                           : 93,750 кадра/сек (512 SPF)
Битовая глубина                          : 24 бит
Метод сжатия                             : С потерями
Размер потока                            : 1,36 Гбайт (10%)
Язык                                     : English
Default                                  : Нет
Forced                                   : Нет

Текст #1
Идентификатор                            : 5
Формат                                   : UTF-8
Идентификатор кодека                     : S_TEXT/UTF8
Идентификатор кодека/Информация          : UTF-8 Plain Text
Продолжительность                        : 2 ч. 1 м.
Битрейт                                  : 43 бит/сек
ElementCount                             : 1197
Размер потока                            : 38,9 Кбайт (0%)
Язык                                     : English
Default                                  : Да
Forced                                   : Нет

Текст #2
Идентификатор                            : 6
Формат                                   : UTF-8
Идентификатор кодека                     : S_TEXT/UTF8
Идентификатор кодека/Информация          : UTF-8 Plain Text
Продолжительность                        : 2 ч. 2 м.
Битрейт                                  : 50 бит/сек
ElementCount                             : 1561
Размер потока                            : 45,7 Кбайт (0%)
Заголовок                                : SDH
Язык                                     : English
Default                                  : Нет
Forced                                   : Нет

Меню
00:00:00.000                             : en:Chapter 01
00:04:08.457                             : en:Chapter 02
00:09:36.367                             : en:Chapter 03
00:14:30.078                             : en:Chapter 04
00:19:49.897                             : en:Chapter 05
00:24:41.063                             : en:Chapter 06
00:29:45.826                             : en:Chapter 07
00:35:00.598                             : en:Chapter 08
00:39:07.595                             : en:Chapter 09
00:47:28.220                             : en:Chapter 10
00:57:16.224                             : en:Chapter 11
01:02:55.271                             : en:Chapter 12
01:09:26.829                             : en:Chapter 13
01:14:30.299                             : en:Chapter 14
01:21:43.774                             : en:Chapter 15
01:30:10.530                             : en:Chapter 16
01:38:15.515                             : en:Chapter 17
01:44:08.742                             : en:Chapter 18
01:54:07.215                             : en:Chapter 19
02:03:00.290                             : en:Chapter 20



Скриншоты:
[+] Всего файлов в раздаче - 1:
Glass.2019.1080p.BDRip.Rus.Ukr.Eng.mkv13.70 GB

Показать еще раздачи по запросу стекло:
Вчера U Стекло / Glass (2019) BDRip от MegaPeer | iTunes 1.46 GB ↑ 66 ↓ 15
Вчера U Стекло / Glass (2019) BDRip от MegaPeer | iTunes 2.13 GB ↑ 60 ↓ 8
2019-04-18 U Стекло / Glass (2019) BDRip 720p от Scarabey | iTunes 5.30 GB ↑ 33 ↓ 17
2019-04-18 U Стекло / Glass (2019) HDRip от Scarabey | iTunes 1.48 GB ↑ 48 ↓ 16
2019-04-17 U Стекло / Glass (2019) BDRip-AVC от HELLYWOOD | iTunes 1.41 GB ↑ 156 ↓ 92
2019-04-17 U Стекло / Glass (2019) HDRip от Scarabey | iTunes 794.94 MB ↑ 48 ↓ 25
2019-04-16 U Стекло / Glass (2019) BDRip 1080p от qqss44 & MegaPeer | iTunes 7.69 GB ↑ 34 ↓ 129

Отзывы
Зарегистрируйтесь чтобы добавить комментарий.
Обратная связь
Copyleft ©