↑↓Torrent.by
Поиск
Логин: Регистрация
Пароль: Восстановить пароль
Загрузка...

Стекло / Glass (2019) UHD BDRip 2160p | 4K | HDR | HDRezka Studio

Скачать steklo-glass-2019-uhd-bdrip-2160p-4k-hdr-hdrezka-studio.torrent
U Магнитная ссылка Размер: 18.52 GB Раздают: 53 Качают: 34 Добавлен: 2019-04-10 05:51:20
Стекло / Glass (2019) UHD BDRip 2160p | 4K | HDR | HDRezka Studio

Название: Стекло
Оригинальное название: Glass
Год выхода: 2019
Жанр: Фантастика, триллер, драма, детектив

Режиссер: М. Найт Шьямалан

В ролях: Джеймс МакЭвой, Брюс Уиллис, Сэмюэл Л. Джексон, Сара Полсон, Аня Тейлор-Джой, Спенсер Трит Кларк, Чарлэйн Вудард, Люк Кирби, Адам Дэвид Томпсон, М. Найт Шьямалан

О фильме:
В поисках встречи с обладающим фантастическими способностями и снова убивающем девушек Зверем Дэвид Данн выходит на след Кевина Крамба. Но решающая схватка не успевает состояться, наших героев ловят и отправляют в психиатрическую больницу. Там уже содержится хрупкий человек Элайджа Прайс, несколько лет устроивший крушение поезда, единственным выжившем в котором оказался Дэвид. Психиатр Элли Стэйпл пытается убедить этих трёх пациентов, что они не обладают сверхспособностями, и всему можно найти рациональное объяснение.

Страна: США
Продолжительность: 02:09:02
Перевод: Профессиональный многоголосый [HDRezka Studio]

Файл
Кодек: H.265
Качество: UHD BDRip 2160p (HDR)
Видео: HEVC, 3840x1600 (2.40:1), 23.976 fps, 15.5 Mb/s, 10 bits
Аудио 1: AC-3, 48.0 kHz, 2 ch, 192 kb/s | RUS (MVO, HDRezka Studio)
Аудио 2: AC-3, 48.0 kHz, 2 ch, 192 kb/s | UKR (DUB, Line)
Аудио 3: TrueHD+Atmos, 48.0 kHz, 8 ch, 4 109 kb/s | ENG
Аудио 4: AC-3, 48.0 kHz, 6 ch, 448 kb/s | ENG
Субтитры: English, French, Spanish

09.04.19 Добавлена русская звуковая дорожка от HDRezka Studio


[+] MI
Общее
Уникальный идентификатор                 : 176848900198908629080039706884660700021 (0x850BDBF7F8D67F63B39F821F4DB6A375)
Полное имя                               : Glass 2019.UHD.BluRay.2160p.HDR.HEVC.RUS.UKR.ENG.mkv
Формат                                   : Matroska
Версия формата                           : Version 4
Размер файла                             : 18,5 Гбайт
Продолжительность                        : 2 ч. 9 м.
Режим общего битрейта                    : Переменный
Общий поток                              : 20,5 Мбит/сек
Дата кодирования                         : UTC 2019-04-09 18:57:35
Программа кодирования                    : mkvmerge v8.3.0 ('Over the Horizon') 64bit
Библиотека кодирования                   : libebml v1.3.1 + libmatroska v1.4.2

Видео
Идентификатор                            : 1
Формат                                   : HEVC
Формат/Информация                        : High Efficiency Video Coding
Коммерческое название                    : HDR10
Профиль формата                          : Main 10@L5.1@High
Идентификатор кодека                     : V_MPEGH/ISO/HEVC
Продолжительность                        : 2 ч. 9 м.
Битрейт                                  : 15,5 Мбит/сек
Ширина                                   : 3840 пикселей
Высота                                   : 1600 пикселей
Соотношение сторон                       : 2,40:1
Режим частоты кадров                     : Постоянный
Частота кадров                           : 23,976 (24000/1001) кадра/сек
Цветовое пространство                    : YUV
Субдискретизация насыщенности            : 4:2:0
Битовая глубина                          : 10 бит
Бит/(Пиксели*Кадры)                      : 0.105
Размер потока                            : 14,0 Гбайт (75%)
Язык                                     : English
Default                                  : Да
Forced                                   : Нет
Цветовой диапазон                        : Limited
Основные цвета                           : BT.2020
Характеристики трансфера                 : PQ
Коэффициенты матрицы                     : BT.2020 non-constant
MasteringDisplay_ColorPrimaries          : Display P3
MasteringDisplay_Luminance               : min: 0.0001 cd/m2, max: 1000 cd/m2
MaxCLL                                   : 457 cd/m2
MaxFALL                                  : 182 cd/m2

Аудио #1
Идентификатор                            : 2
Формат                                   : AC-3
Формат/Информация                        : Audio Coding 3
Коммерческое название                    : Dolby Digital
Идентификатор кодека                     : A_AC3
Продолжительность                        : 2 ч. 9 м.
Вид битрейта                             : Постоянный
Битрейт                                  : 192 Кбит/сек
Каналы                                   : 2 канала
Channel layout                           : L R
Частота                                  : 48,0 КГц
Частота кадров                           : 31,250 кадров/сек (1536 SPF)
Битовая глубина                          : 16 бит
Метод сжатия                             : С потерями
Размер потока                            : 177 Мбайт (1%)
Заголовок                                : MVO [HDRezka Studio]
Язык                                     : Russian
Default                                  : Да
Forced                                   : Нет

Аудио #2
Идентификатор                            : 3
Формат                                   : AC-3
Формат/Информация                        : Audio Coding 3
Коммерческое название                    : Dolby Digital
Идентификатор кодека                     : A_AC3
Продолжительность                        : 2 ч. 9 м.
Вид битрейта                             : Постоянный
Битрейт                                  : 192 Кбит/сек
Каналы                                   : 2 канала
Channel layout                           : L R
Частота                                  : 48,0 КГц
Частота кадров                           : 31,250 кадров/сек (1536 SPF)
Битовая глубина                          : 16 бит
Метод сжатия                             : С потерями
Размер потока                            : 177 Мбайт (1%)
Заголовок                                : DUB [Line]
Язык                                     : Ukrainian
Default                                  : Нет
Forced                                   : Нет

Аудио #3
Идентификатор                            : 4
Формат                                   : MLP FBA 16-ch
Формат/Информация                        : Meridian Lossless Packing FBA with 16-channel presentation
Коммерческое название                    : Dolby TrueHD with Dolby Atmos
Идентификатор кодека                     : A_TRUEHD
Продолжительность                        : 2 ч. 9 м.
Вид битрейта                             : Переменный
Битрейт                                  : 4109 Кбит/сек
Максимальный битрейт                     : 7326 Кбит/сек
Каналы                                   : 8 каналов
Channel layout                           : L R C LFE Ls Rs Lb Rb
Частота                                  : 48,0 КГц
Частота кадров                           : 1200,000 кадров/сек (40 SPF)
Метод сжатия                             : Без потерь
Размер потока                            : 3,70 Гбайт (20%)
Язык                                     : English
Default                                  : Нет
Forced                                   : Нет
Number of dynamic objects                : 11
Bed channel count                        : 1 канал
Bed channel configuration                : LFE

Аудио #4
Идентификатор                            : 5
Формат                                   : AC-3
Формат/Информация                        : Audio Coding 3
Коммерческое название                    : Dolby Digital
Идентификатор кодека                     : A_AC3
Продолжительность                        : 2 ч. 9 м.
Вид битрейта                             : Постоянный
Битрейт                                  : 448 Кбит/сек
Каналы                                   : 6 каналов
Channel layout                           : L R C LFE Ls Rs
Частота                                  : 48,0 КГц
Частота кадров                           : 31,250 кадров/сек (1536 SPF)
Битовая глубина                          : 16 бит
Метод сжатия                             : С потерями
Размер потока                            : 413 Мбайт (2%)
Язык                                     : English
Default                                  : Нет
Forced                                   : Нет

Текст #1
Идентификатор                            : 6
Формат                                   : PGS
Режим смешивания                         : zlib
Идентификатор кодека                     : S_HDMV/PGS
Идентификатор кодека/Информация          : Picture based subtitle format used on BDs/HD-DVDs
Продолжительность                        : 2 ч. 2 м.
Битрейт                                  : 10,9 Кбит/сек
ElementCount                             : 3130
Размер потока                            : 9,58 Мбайт (0%)
Заголовок                                : English (SDH)
Язык                                     : English
Default                                  : Нет
Forced                                   : Нет

Текст #2
Идентификатор                            : 7
Формат                                   : PGS
Режим смешивания                         : zlib
Идентификатор кодека                     : S_HDMV/PGS
Идентификатор кодека/Информация          : Picture based subtitle format used on BDs/HD-DVDs
Продолжительность                        : 2 ч. 8 м.
Битрейт                                  : 7853 бит/сек
ElementCount                             : 2457
Размер потока                            : 7,22 Мбайт (0%)
Заголовок                                : French
Язык                                     : French
Default                                  : Нет
Forced                                   : Нет

Текст #3
Идентификатор                            : 8
Формат                                   : PGS
Режим смешивания                         : zlib
Идентификатор кодека                     : S_HDMV/PGS
Идентификатор кодека/Информация          : Picture based subtitle format used on BDs/HD-DVDs
Продолжительность                        : 2 ч. 8 м.
Битрейт                                  : 7822 бит/сек
ElementCount                             : 2450
Размер потока                            : 7,19 Мбайт (0%)
Заголовок                                : Spanish (Latin American)
Язык                                     : Spanish
Default                                  : Нет
Forced                                   : Нет

Текст #4
Идентификатор                            : 9
Формат                                   : UTF-8
Идентификатор кодека                     : S_TEXT/UTF8
Идентификатор кодека/Информация          : UTF-8 Plain Text
Продолжительность                        : 2 ч. 2 м.
Битрейт                                  : 52 бит/сек
ElementCount                             : 1565
Размер потока                            : 46,8 Кбайт (0%)
Заголовок                                : SDH
Язык                                     : English
Default                                  : Нет
Forced                                   : Нет

Меню
00:00:00.000                             : en:Chapter 01
00:04:08.457                             : en:Chapter 02
00:09:36.367                             : en:Chapter 03
00:14:30.078                             : en:Chapter 04
00:19:49.897                             : en:Chapter 05
00:24:41.063                             : en:Chapter 06
00:29:45.826                             : en:Chapter 07
00:35:00.598                             : en:Chapter 08
00:39:07.595                             : en:Chapter 09
00:47:28.220                             : en:Chapter 10
00:57:16.224                             : en:Chapter 11
01:02:55.271                             : en:Chapter 12
01:09:26.829                             : en:Chapter 13
01:14:30.299                             : en:Chapter 14
01:21:43.774                             : en:Chapter 15
01:30:10.530                             : en:Chapter 16
01:38:15.515                             : en:Chapter 17
01:44:08.742                             : en:Chapter 18
01:54:07.215                             : en:Chapter 19
02:03:00.290                             : en:Chapter 20



Скриншоты:
[+] Всего файлов в раздаче - 1:
Glass 2019.UHD.BluRay.2160p.HDR.HEVC.RUS.UKR.ENG.mkv18.52 GB

Показать еще раздачи по запросу стекло:
2019-04-20 U Стекло / Glass (2019) BDRip от MegaPeer | iTunes 1.46 GB ↑ 80 ↓ 16
2019-04-20 U Стекло / Glass (2019) BDRip от MegaPeer | iTunes 2.13 GB ↑ 61 ↓ 9
2019-04-18 U Стекло / Glass (2019) BDRip 720p от Scarabey | iTunes 5.30 GB ↑ 43 ↓ 18
2019-04-18 U Стекло / Glass (2019) HDRip от Scarabey | iTunes 1.48 GB ↑ 74 ↓ 17
2019-04-17 U Стекло / Glass (2019) BDRip-AVC от HELLYWOOD | iTunes 1.41 GB ↑ 156 ↓ 93
2019-04-17 U Стекло / Glass (2019) HDRip от Scarabey | iTunes 794.94 MB ↑ 56 ↓ 25
2019-04-16 U Стекло / Glass (2019) BDRip 1080p от qqss44 & MegaPeer | iTunes 7.69 GB ↑ 38 ↓ 131

Отзывы
Зарегистрируйтесь чтобы добавить комментарий.
Обратная связь
Copyleft ©