↑↓Torrent.by
Поиск
Логин: Регистрация
Пароль: Восстановить пароль
Загрузка...

Штамм химеры / Chimera Strain (2018) WEB-DL 1080p | HDRezka Studio

Скачать shtamm-himery-chimera-strain-2018-web-dl-1080p-hdrezka-studio.torrent
U Магнитная ссылка Размер: 5.16 GB Раздают: 235 Качают: 175 Добавлен: 2019-04-10 19:00:07
Штамм химеры / Chimera Strain (2018) WEB-DL 1080p | HDRezka Studio

Название: Штамм химеры
Оригинальное название: Chimera Strain
Год выпуска: 2018
Жанр:  Фантастика, триллер, драма
Режиссер: Морис Хаймс
В ролях: Генри Иэн Кьюсик, Кэтлин Куинлен, Эрика Эрвин, Дженна Харрисон, Каришма Ахлувалиа, Дженнифер Гьюламети, Равив Хаймс, Каавья Джаярам, Лоуренс Сэмпсон

О фильме: По злой иронии судьбы жена Питера, учёного-генетика, умирает от редкой генетической мутации. Узнав, что дети унаследовали эту мутацию от матери и их ждёт такая же участь, он становится одержим идеей поиска "гена бессмертия", но понимает, что времени на поиски ему не хватит. Тогда он решает рискнуть и использовать на детях непроверенную технологию криогенной заморозки, чтобы затормозить развитие их болезни и дать себе время на поиски лекарства.

Выпущено: Индия, ОАЭ, США, Praxis Media Ventures
Продолжительность: 01:20:06
Перевод: Профессиональный (многоголосый, закадровый) | HDRezka Studio

Файл
Качество: WEB-DL 1080p
Контейнер: MKV
Видео: MPEG-4 AVC, 8385 Кбит/с, 1920x1080
Аудио 1: Русский: AC3, 2 ch, 192 Кбит/с - HDRezka Studio
Аудио 2: Английский: Е-AC3, 6 ch, 640 Кбит/с - Original
Субтитры: Английские


[+] MediaInfo
General
Unique ID                                : 147858302532981404708257267196012244096 (0x6F3C792616FA71193E7B6D7CB0BBAC80)
Complete name                            : Chimera.Strain.2018.WEB-DL.1080p.mkv
Format                                   : Matroska
Format version                           : Version 4 / Version 2
File size                                : 5.16 GiB
Duration                                 : 1 h 20 min
Overall bit rate                         : 9 219 kb/s
Encoded date                             : UTC 2019-04-09 22:36:41
Writing application                      : mkvmerge v20.0.0 ('I Am The Sun') 64-bit
Writing library                          : libebml v1.3.5 + libmatroska v1.4.8

Video
ID                                       : 1
Format                                   : AVC
Format/Info                              : Advanced Video Codec
Format profile                           : High@L4
Format settings, CABAC                   : Yes
Format settings, RefFrames               : 4 frames
Codec ID                                 : V_MPEG4/ISO/AVC
Duration                                 : 1 h 20 min
Bit rate mode                            : Constant
Bit rate                                 : 8 385 kb/s
Nominal bit rate                         : 10 000 kb/s
Width                                    : 1 920 pixels
Height                                   : 1 080 pixels
Display aspect ratio                     : 16:9
Frame rate mode                          : Constant
Frame rate                               : 23.976 (24000/1001) FPS
Color space                              : YUV
Chroma subsampling                       : 4:2:0
Bit depth                                : 8 bits
Scan type                                : Progressive
Bits/(Pixel*Frame)                       : 0.169
Stream size                              : 4.69 GiB (91%)
Language                                 : English
Default                                  : Yes
Forced                                   : No
Color range                              : Limited
Color primaries                          : BT.709
Transfer characteristics                 : BT.709
Matrix coefficients                      : BT.709

Audio #1
ID                                       : 2
Format                                   : AC-3
Format/Info                              : Audio Coding 3
Format settings, Endianness              : Big
Codec ID                                 : A_AC3
Duration                                 : 1 h 20 min
Bit rate mode                            : Constant
Bit rate                                 : 192 kb/s
Channel(s)                               : 2 channels
Channel positions                        : Front: L R
Sampling rate                            : 48.0 kHz
Frame rate                               : 31.250 FPS (1536 SPF)
Bit depth                                : 16 bits
Compression mode                         : Lossy
Stream size                              : 110 MiB (2%)
Title                                    : MVO HDRezka
Language                                 : Russian
Service kind                             : Complete Main
Default                                  : Yes
Forced                                   : No

Audio #2
ID                                       : 3
Format                                   : E-AC-3
Format/Info                              : Enhanced Audio Coding 3
Format settings, Endianness              : Big
Codec ID                                 : A_EAC3
Duration                                 : 1 h 20 min
Bit rate mode                            : Constant
Bit rate                                 : 640 kb/s
Channel(s)                               : 6 channels
Channel positions                        : Front: L C R, Side: L R, LFE
Sampling rate                            : 48.0 kHz
Frame rate                               : 187.500 FPS (256 SPF)
Compression mode                         : Lossy
Stream size                              : 367 MiB (7%)
Language                                 : English
Service kind                             : Complete Main
Default                                  : No
Forced                                   : No

Text
ID                                       : 4
Format                                   : UTF-8
Codec ID                                 : S_TEXT/UTF8
Codec ID/Info                            : UTF-8 Plain Text
Duration                                 : 1 h 11 min
Bit rate                                 : 38 b/s
Count of elements                        : 610
Stream size                              : 20.3 KiB (0%)
Language                                 : English
Default                                  : No
Forced                                   : No



Скриншоты:
[+] Всего файлов в раздаче - 1:
Chimera.Strain.2018.WEB-DL.1080p.mkv5.16 GB

Показать еще раздачи по запросу штамм:
2019-04-11 U Штамм химеры / Chimera Strain (2018) WEB-DLRip-AVC от OlLanDGroup | HDRezka Studio 1.46 GB ↑ 43 ↓ 28
2017-09-20 U Штамм / The Strain [S04] (2017) WEB-DLRip | LostFilm 5.54 GB ↑ 116 ↓ 124
2017-09-19 U Штамм / The Strain [S04] (2017) WEB-DLRip | Newstudio 5.59 GB ↑ 26 ↓ 64
2017-09-18 U Штамм / The Strain [S4] (2017) HDTVRip 720p | Sunshine Studio 8.38 GB ↑ 126 ↓ 772
2017-09-12 U Штамм / The Strain [04х01-09 из 10] (2017) HDTVRip 720p | Sunshine Studio 7.52 GB ↑ 30 ↓ 245
2017-08-29 U Штамм / The Strain [04x01-07 из 10] (2017) WEB-DLRip | LostFilm 3.82 GB ↑ 154 ↓ 101
2017-08-29 U Штамм / The Strain / Сезон 4 / Серии 1-7 (10) [2017, WEB-DL 720p] MVO (AlexFilm) 9.89 GB ↑ 9 ↓ 36

Отзывы
Зарегистрируйтесь чтобы добавить комментарий.
Обратная связь
Copyleft ©