↑↓Torrent.by
Поиск
Логин: Регистрация
Пароль: Восстановить пароль
Загрузка...

Нэнси Дрю и потайная лестница / Nancy Drew and the Hidden Staircase (2019) WEB-DL 1080p от ExKinoRay | HDRezka Studio

Скачать nensi-dryu-i-potaynaya-lestnica-nancy-drew-and-the-hidden-staircase-2019-web-dl-1080p-ot-exkinoray-hdrezka-studio.torrent
U Магнитная ссылка Размер: 3.56 GB Раздают: 190 Качают: 50 Добавлен: 2019-04-10 19:00:21
Нэнси Дрю и потайная лестница / Nancy Drew and the Hidden Staircase (2019) WEB-DL 1080p от ExKinoRay | HDRezka Studio

Название: Нэнси Дрю и потайная лестница
Оригинальное название: Nancy Drew and the Hidden Staircase
Год выпуска: 2019
Жанр:  Драма, криминал, детектив, семейный
Режиссер: Кэтт Ши
В ролях: София Лиллис, Сэм Трэммелл, Андреа Андерс, Лаура Уиггинс, Линда Лавин, Джесси Бойд, Джон Бридделл, Дженнифер Райкер, Маккензи Грэхэм, Ивэн Кастелло

Описание:   В центре сюжета — парочка пожилых сестер Тернбулл, живущих в старом особняке Викторианской эпохи. Странные события, происходящие в стенах дома, приводят к тому, что сестер обвиняют в убийстве. Нэнси Дрю берется за дело и спешит разгадать тайну, чтобы спасти героинь от тюрьмы.

Выпущено: США, A Very Good Production Inc., Red 56
Продолжительность: 01:28:58
Перевод: Профессиональный (многоголосый, закадровый) | HDRezka Studio
Субтитры: Английские

БЕЗ КАКОЙ-ЛИБО РЕКЛАМЫ!

Формат: MKV
Качество: WEB-DL 1080p
Видео: MPEG-4 AVC, 1912x1072 (16:9), 23.976 fps, 5031 Kbps, 0.102 bit/pixel
Аудио 1: 48 kHz, AC3, 2.0, 192 Kbps | MVO | RUS |
Аудио 2: 48 kHz, AC3, 5.1, 384 Kbps | Оригинал |  ENG |

Релиз:

Автор релиза:


[+] ОтчетМедиаИнфо
General
Unique ID                                : 173005696004678440096941792923306767540 (0x8227AF5F5698CE03ACB5F34DF42D34B4)
Complete name                            : F:Nancy.Drew.and.the.Hidden.Staircase.2019.MVO.1080p.WEB-DL.ExKinoRay.mkv
Format                                   : Matroska
Format version                           : Version 2
File size                                : 3.56 GiB
Duration                                 : 1 h 28 min
Overall bit rate                         : 5 721 kb/s
Movie name                               : Nancy Drew and the Hidden Staircase 2019 from ExKinoray
Encoded date                             : UTC 2019-04-10 02:36:58
Writing application                      : mkvmerge v5.6.0 ('Kenya Kane') built on May 27 2012 16:44:04
Writing library                          : libebml v1.2.3 + libmatroska v1.3.0

Video
ID                                       : 1
Format                                   : AVC
Format/Info                              : Advanced Video Codec
Format profile                           : High@L4
Format settings, CABAC                   : Yes
Format settings, ReFrames                : 4 frames
Codec ID                                 : V_MPEG4/ISO/AVC
Duration                                 : 1 h 28 min
Bit rate                                 : 5 031 kb/s
Width                                    : 1 912 pixels
Height                                   : 1 072 pixels
Display aspect ratio                     : 16:9
Frame rate mode                          : Constant
Frame rate                               : 23.976 FPS
Color space                              : YUV
Chroma subsampling                       : 4:2:0
Bit depth                                : 8 bits
Scan type                                : Progressive
Bits/(Pixel*Frame)                       : 0.102
Stream size                              : 3.13 GiB (88%)
Title                                    : Nancy.Drew.and.the.Hidden.Staircase.2019
Language                                 : English
Default                                  : Yes
Forced                                   : No
Color range                              : Limited
Color primaries                          : BT.709
Transfer characteristics                 : BT.709
Matrix coefficients                      : BT.709

Audio #1
ID                                       : 2
Format                                   : AC-3
Format/Info                              : Audio Coding 3
Mode extension                           : CM (complete main)
Format settings, Endianness              : Big
Codec ID                                 : A_AC3
Duration                                 : 1 h 28 min
Bit rate mode                            : Constant
Bit rate                                 : 192 kb/s
Channel(s)                               : 2 channels
Channel positions                        : Front: L R
Sampling rate                            : 48.0 kHz
Frame rate                               : 31.250 FPS (1536 spf)
Compression mode                         : Lossy
Stream size                              : 122 MiB (3%)
Title                                    : MVO (HDRezka Studio)
Language                                 : Russian
Default                                  : No
Forced                                   : No

Audio #2
ID                                       : 3
Format                                   : AC-3
Format/Info                              : Audio Coding 3
Mode extension                           : CM (complete main)
Format settings, Endianness              : Big
Codec ID                                 : A_AC3
Duration                                 : 1 h 28 min
Bit rate mode                            : Constant
Bit rate                                 : 384 kb/s
Channel(s)                               : 6 channels
Channel positions                        : Front: L C R, Side: L R, LFE
Sampling rate                            : 48.0 kHz
Frame rate                               : 31.250 FPS (1536 spf)
Compression mode                         : Lossy
Stream size                              : 244 MiB (7%)
Language                                 : English
Default                                  : No
Forced                                   : No

Text
ID                                       : 4
Format                                   : UTF-8
Codec ID                                 : S_TEXT/UTF8
Codec ID/Info                            : UTF-8 Plain Text
Language                                 : English
Default                                  : No
Forced                                   : No

Menu
00:00:00.000                             : en:1
00:11:36.000                             : en:2
00:21:18.000                             : en:3
00:34:09.000                             : en:4
00:47:24.000                             : en:5
00:58:10.000                             : en:6
01:11:06.000                             : en:7
01:25:23.000                             : en:8




Скриншоты:
[+] Всего файлов в раздаче - 1:
Nancy.Drew.and.the.Hidden.Staircase.2019.MVO.1080p.WEB-DL.ExKinoRay.mkv3.56 GB

Похожие раздачи по запросу - нэнси:
2019-07-01 U Нэнси Дрю и потайная лестница / Nancy Drew and the Hidden Staircase (2019) BDRip 1080p от ExKinoRay | HDRezka Studio 7.24 GB ↑ 54 ↓ 8
2019-06-29 U Нэнси Дрю и потайная лестница / Nancy Drew and the Hidden Staircase (2019) BDRip от MegaPeer | HDRezka Studio 1.46 GB ↑ 259 ↓ 76
2019-04-11 U Нэнси Дрю и потайная лестница / Nancy Drew and the Hidden Staircase (2019) WEB-DLRip от Portablius | HDRezka Studio 744.88 MB ↑ 75 ↓ 7
2017-12-10 U Отмороженная Нэнси - Снять Красные Трусики с Хельги (2017) MP3 75.94 MB ↑ 171 ↓ 19
2013-11-15 U Нэнси Дрю. Проклятие старого замка / Nancy Drew: The Captive Curse (2011) PC | Repack 1.86 GB ↑ 522 ↓ 14
2013-10-27 U Нэнси Дрю.Усыпальница пропавшей королевы / Nancy Drew.Tomb Of The Lost Queen (2013) PC | Repack от Fenixx 4К1.97 GB ↑ 302 ↓ 3

Отзывы
Зарегистрируйтесь чтобы добавить комментарий.
Обратная связь
Copyleft ©